<?xml version="1.0" standalone="no"?>
<!DOCTYPE svg PUBLIC "-//W3C//DTD SVG 1.1//EN" "http://www.w3.org/Graphics/SVG/1.1/DTD/svg11.dtd" >
<svg xmlns="http://www.w3.org/2000/svg">
<metadata>Generated by IcoMoon</metadata>
<defs>
<font id="mdfonticon" horiz-adv-x="1024">
<font-face units-per-em="1024" ascent="960" descent="-64" />
<missing-glyph horiz-adv-x="1024" />
<glyph unicode="&#x20;" d="" horiz-adv-x="512" />
<glyph unicode="&#xe600;" d="M810.667 832h-597.333c-47.147 0-85.333-38.187-85.333-85.333v-597.333c0-47.147 38.187-85.333 85.333-85.333h597.333c47.147 0 85.333 38.187 85.333 85.333v597.333c0 47.147-38.187 85.333-85.333 85.333zM426.667 234.667l-213.333 213.333 60.373 60.373 152.96-152.96 323.627 323.627 60.373-60.373-384-384z" />
<glyph unicode="&#xe601;" d="M810.667 746.667v-597.333h-597.333v597.333h597.333zM810.667 832h-597.333c-47.147 0-85.333-38.187-85.333-85.333v-597.333c0-47.147 38.187-85.333 85.333-85.333h597.333c47.147 0 85.333 38.187 85.333 85.333v597.333c0 47.147-38.187 85.333-85.333 85.333z" />
<glyph unicode="&#xe602;" d="M512 874.667c-235.733 0-426.667-190.933-426.667-426.667s190.933-426.667 426.667-426.667 426.667 190.933 426.667 426.667-190.933 426.667-426.667 426.667zM512 106.667c-188.587 0-341.333 152.747-341.333 341.333s152.747 341.333 341.333 341.333 341.333-152.747 341.333-341.333-152.747-341.333-341.333-341.333z" />
<glyph unicode="&#xe603;" d="M512 661.333c-117.76 0-213.333-95.573-213.333-213.333s95.573-213.333 213.333-213.333 213.333 95.573 213.333 213.333-95.573 213.333-213.333 213.333zM512 874.667c-235.733 0-426.667-190.933-426.667-426.667s190.933-426.667 426.667-426.667 426.667 190.933 426.667 426.667-190.933 426.667-426.667 426.667zM512 106.667c-188.587 0-341.333 152.747-341.333 341.333s152.747 341.333 341.333 341.333 341.333-152.747 341.333-341.333-152.747-341.333-341.333-341.333z" />
<glyph unicode="&#xe604;" d="M512 704c47.147 0 85.333 38.187 85.333 85.333 0 16-4.48 31.147-12.16 43.947l-73.173 126.72-73.173-126.72c-7.68-12.8-12.16-27.947-12.16-43.947 0-47.147 38.187-85.333 85.333-85.333zM708.053 277.973l-45.867 45.867-46.080-45.867c-55.68-55.68-152.96-55.68-208.64 0l-45.867 45.867-46.080-45.867c-27.52-27.947-64.427-43.307-103.893-43.307-30.933 0-59.733 9.813-83.627 26.24v-196.907c0-23.467 19.2-42.667 42.667-42.667h682.667c23.467 0 42.667 19.2 42.667 42.667v196.907c-23.893-16.427-52.48-26.24-83.627-26.24-39.467 0-76.373 15.36-104.32 43.307zM768 576h-213.333v85.333h-85.333v-85.333h-213.333c-70.613 0-128-57.387-128-128v-65.707c0-46.080 37.547-83.627 83.627-83.627 22.4 0 43.307 8.747 59.093 24.533l91.307 91.093 91.093-90.88c31.573-31.573 86.613-31.573 118.187 0l91.307 90.88 91.093-90.88c15.787-15.787 36.693-24.533 59.093-24.533 46.080 0 83.627 37.547 83.627 83.627v65.493c-0.427 70.613-57.813 128-128.427 128z" />
<glyph unicode="&#xe605;" d="M512 661.333v170.667h-426.667v-768h853.333v597.333h-426.667zM256 149.333h-85.333v85.333h85.333v-85.333zM256 320h-85.333v85.333h85.333v-85.333zM256 490.667h-85.333v85.333h85.333v-85.333zM256 661.333h-85.333v85.333h85.333v-85.333zM426.667 149.333h-85.333v85.333h85.333v-85.333zM426.667 320h-85.333v85.333h85.333v-85.333zM426.667 490.667h-85.333v85.333h85.333v-85.333zM426.667 661.333h-85.333v85.333h85.333v-85.333zM853.333 149.333h-341.333v85.333h85.333v85.333h-85.333v85.333h85.333v85.333h-85.333v85.333h341.333v-426.667zM768 490.667h-85.333v-85.333h85.333v85.333zM768 320h-85.333v-85.333h85.333v85.333z" />
<glyph unicode="&#xe606;" d="M682.667 490.667c70.613 0 127.573 57.387 127.573 128s-56.96 128-127.573 128c-70.613 0-128-57.387-128-128s57.387-128 128-128zM341.333 490.667c70.613 0 127.573 57.387 127.573 128s-56.96 128-127.573 128c-70.613 0-128-57.387-128-128s57.387-128 128-128zM341.333 405.333c-99.627 0-298.667-49.92-298.667-149.333v-106.667h597.333v106.667c0 99.413-199.040 149.333-298.667 149.333zM682.667 405.333c-12.373 0-26.24-0.853-41.173-2.347 49.493-35.627 83.84-83.627 83.84-146.987v-106.667h256v106.667c0 99.413-199.040 149.333-298.667 149.333z" />
<glyph unicode="&#xe607;" d="M341.333 533.333h-128v128h-85.333v-128h-128v-85.333h128v-128h85.333v128h128v85.333zM768 490.667c70.613 0 127.573 57.387 127.573 128s-56.96 128-127.573 128c-13.653 0-26.667-2.133-39.040-6.187 24.107-34.56 38.613-76.587 38.613-121.813s-14.507-87.253-38.613-121.813c12.373-4.053 25.387-6.187 39.040-6.187zM554.667 490.667c70.613 0 127.573 57.387 127.573 128s-56.96 128-127.573 128c-70.613 0-128-57.387-128-128s57.387-128 128-128zM837.12 398.507c35.413-30.933 58.88-70.827 58.88-121.173v-85.333h128v85.333c0 65.707-101.333 106.027-186.88 121.173zM554.667 405.333c-85.333 0-256-42.667-256-128v-85.333h512v85.333c0 85.333-170.667 128-256 128z" />
<glyph unicode="&#xe608;" d="M640 490.667v256l-128 128-128-128v-85.333h-256v-597.333h768v426.667h-256zM298.667 149.333h-85.333v85.333h85.333v-85.333zM298.667 320h-85.333v85.333h85.333v-85.333zM298.667 490.667h-85.333v85.333h85.333v-85.333zM554.667 149.333h-85.333v85.333h85.333v-85.333zM554.667 320h-85.333v85.333h85.333v-85.333zM554.667 490.667h-85.333v85.333h85.333v-85.333zM554.667 661.333h-85.333v85.333h85.333v-85.333zM810.667 149.333h-85.333v85.333h85.333v-85.333zM810.667 320h-85.333v85.333h85.333v-85.333z" />
<glyph unicode="&#xe609;" d="M511.787 874.667c-235.733 0-426.453-190.933-426.453-426.667s190.72-426.667 426.453-426.667c235.733 0 426.88 190.933 426.88 426.667s-191.147 426.667-426.88 426.667zM512 106.667c-188.587 0-341.333 152.747-341.333 341.333s152.747 341.333 341.333 341.333 341.333-152.747 341.333-341.333-152.747-341.333-341.333-341.333zM661.333 490.667c35.413 0 64 28.587 64 64s-28.587 64-64 64-64-28.587-64-64 28.587-64 64-64zM362.667 490.667c35.413 0 64 28.587 64 64s-28.587 64-64 64-64-28.587-64-64 28.587-64 64-64zM512 213.333c99.413 0 183.68 62.080 217.813 149.333h-435.627c34.133-87.253 118.4-149.333 217.813-149.333z" />
<glyph unicode="&#xe60a;" d="M490.667 21.333c47.147 0 85.333 38.187 85.333 85.333h-170.667c0-47.147 38.187-85.333 85.333-85.333zM768 277.333v234.667c0 131.2-91.093 240.64-213.333 269.653v29.013c0 35.413-28.587 64-64 64s-64-28.587-64-64v-29.013c-122.24-29.013-213.333-138.453-213.333-269.653v-234.667l-85.333-85.333v-42.667h725.333v42.667l-85.333 85.333z" />
<glyph unicode="&#xe60b;" d="M490.667 21.333c47.147 0 85.333 38.187 85.333 85.333h-170.667c0-47.147 38.187-85.333 85.333-85.333zM768 277.333v234.667c0 131.2-91.093 240.64-213.333 269.653v29.013c0 35.413-28.587 64-64 64s-64-28.587-64-64v-29.013c-122.24-29.013-213.333-138.453-213.333-269.653v-234.667l-85.333-85.333v-42.667h725.333v42.667l-85.333 85.333zM682.667 234.667h-384v277.333c0 106.027 85.973 192 192 192s192-85.973 192-192v-277.333z" />
<glyph unicode="&#xe60c;" d="M490.667 21.333c47.147 0 85.333 38.187 85.333 85.333h-170.667c0-47.147 38.187-85.333 85.333-85.333zM768 512c0 131.2-91.093 240.64-213.333 269.653v29.013c0 35.413-28.587 64-64 64s-64-28.587-64-64v-29.013c-21.76-5.12-42.24-13.653-61.653-23.68l402.987-402.987v157.013zM756.48 149.333l85.333-85.333 54.187 54.4-713.6 713.6-54.4-54.4 124.587-124.587c-24.747-41.173-39.253-89.387-39.253-141.013v-234.667l-85.333-85.333v-42.667h628.48z" />
<glyph unicode="&#xe60d;" d="M280.747 807.253l-61.013 61.013c-102.187-77.867-169.6-198.187-176-334.933h85.333c6.613 113.067 64.853 212.053 151.68 273.92zM852.267 533.333h85.333c-6.4 136.747-73.813 257.067-176 334.933l-60.8-60.8c86.613-62.080 144.853-161.067 151.467-274.133zM768 512c0 131.2-91.093 240.64-213.333 269.653v29.013c0 35.413-28.587 64-64 64s-64-28.587-64-64v-29.013c-122.24-29.013-213.333-138.453-213.333-269.653v-234.667l-85.333-85.333v-42.667h725.333v42.667l-85.333 85.333v234.667zM490.667 21.333c5.973 0 11.733 0.64 17.28 1.707 27.733 5.76 50.56 24.96 61.44 50.347 4.267 10.24 6.613 21.333 6.613 33.28h-170.667c0-47.147 38.187-85.333 85.333-85.333z" />
<glyph unicode="&#xe60e;" d="M490.667 21.333c47.147 0 85.333 38.187 85.333 85.333h-170.667c0-47.147 38.187-85.333 85.333-85.333zM768 277.333v234.667c0 131.2-91.093 240.64-213.333 269.653v29.013c0 35.413-28.587 64-64 64s-64-28.587-64-64v-29.013c-122.24-29.013-213.333-138.453-213.333-269.653v-234.667l-85.333-85.333v-42.667h725.333v42.667l-85.333 85.333zM597.333 541.867l-119.467-145.067h119.467v-76.8h-213.333v76.8l119.467 145.067h-119.467v76.8h213.333v-76.8z" />
<glyph unicode="&#xe60f;" d="M128 746.667v-256h213.333l-42.667 170.667 170.667-42.667v213.333h-256c-47.147 0-85.333-38.187-85.333-85.333zM341.333 405.333h-213.333v-256c0-47.147 38.187-85.333 85.333-85.333h256v213.333l-170.667-42.667 42.667 170.667zM725.333 234.667l-170.667 42.667v-213.333h256c47.147 0 85.333 38.187 85.333 85.333v256h-213.333l42.667-170.667zM810.667 832h-256v-213.333l170.667 42.667-42.667-170.667h213.333v256c0 47.147-38.187 85.333-85.333 85.333z" />
<glyph unicode="&#xe610;" d="M853.333 789.333h-135.253l-78.080 85.333h-256l-78.080-85.333h-135.253c-47.147 0-85.333-38.187-85.333-85.333v-512c0-47.147 38.187-85.333 85.333-85.333h682.667c47.147 0 85.333 38.187 85.333 85.333v512c0 47.147-38.187 85.333-85.333 85.333zM512 661.333c69.547 0 130.773-33.92 169.813-85.333h-169.813c-70.613 0-128-57.387-128-128 0-15.147 2.987-29.227 7.893-42.667h-88.96c-2.773 13.867-4.267 27.947-4.267 42.667 0 117.76 95.573 213.333 213.333 213.333zM512 234.667c-69.547 0-130.773 33.707-169.6 85.333h169.6c70.613 0 128 57.387 128 128 0 14.933-2.987 29.227-7.893 42.667h88.96c2.773-13.867 4.267-27.947 4.267-42.667 0-117.76-95.573-213.333-213.333-213.333z" />
<glyph unicode="&#xe611;" d="M682.667 490.667c70.613 0 127.573 57.387 127.573 128s-56.96 128-127.573 128c-70.613 0-128-57.387-128-128s57.387-128 128-128zM341.333 490.667c70.613 0 127.573 57.387 127.573 128s-56.96 128-127.573 128c-70.613 0-128-57.387-128-128s57.387-128 128-128zM341.333 405.333c-99.627 0-298.667-49.92-298.667-149.333v-106.667h597.333v106.667c0 99.413-199.040 149.333-298.667 149.333zM682.667 405.333c-12.373 0-26.24-0.853-41.173-2.347 49.493-35.627 83.84-83.627 83.84-146.987v-106.667h256v106.667c0 99.413-199.040 149.333-298.667 149.333z" />
<glyph unicode="&#xe612;" d="M704 405.333c-51.413 0-131.2-14.293-192-42.88-60.8 28.587-140.587 42.88-192 42.88-92.373 0-277.333-46.293-277.333-138.667v-117.333h938.667v117.333c0 92.373-184.96 138.667-277.333 138.667zM533.333 213.333h-426.667v53.333c0 22.827 109.227 74.667 213.333 74.667s213.333-51.84 213.333-74.667v-53.333zM917.333 213.333h-320v53.333c0 19.413-8.533 36.693-22.187 52.053 37.76 12.8 83.84 22.613 128.853 22.613 104.107 0 213.333-51.84 213.333-74.667v-53.333zM320 448c82.56 0 149.333 66.987 149.333 149.333s-66.773 149.333-149.333 149.333c-82.347 0-149.333-66.987-149.333-149.333s66.987-149.333 149.333-149.333zM320 682.667c47.147 0 85.333-38.187 85.333-85.333s-38.187-85.333-85.333-85.333-85.333 38.187-85.333 85.333 38.187 85.333 85.333 85.333zM704 448c82.56 0 149.333 66.987 149.333 149.333s-66.773 149.333-149.333 149.333c-82.347 0-149.333-66.987-149.333-149.333s66.987-149.333 149.333-149.333zM704 682.667c47.147 0 85.333-38.187 85.333-85.333s-38.187-85.333-85.333-85.333-85.333 38.187-85.333 85.333 38.187 85.333 85.333 85.333z" />
<glyph unicode="&#xe613;" d="M512 448c94.293 0 170.667 76.587 170.667 170.667 0 94.293-76.373 170.667-170.667 170.667s-170.667-76.373-170.667-170.667c0-94.080 76.373-170.667 170.667-170.667zM512 362.667c-113.707 0-341.333-56.96-341.333-170.667v-85.333h682.667v85.333c0 113.707-227.627 170.667-341.333 170.667z" />
<glyph unicode="&#xe614;" d="M640 448c94.293 0 170.667 76.587 170.667 170.667 0 94.293-76.373 170.667-170.667 170.667s-170.667-76.373-170.667-170.667c0-94.080 76.373-170.667 170.667-170.667zM256 533.333v128h-85.333v-128h-128v-85.333h128v-128h85.333v128h128v85.333h-128zM640 362.667c-113.707 0-341.333-56.96-341.333-170.667v-85.333h682.667v85.333c0 113.707-227.627 170.667-341.333 170.667z" />
<glyph unicode="&#xe615;" d="M512 708.267c49.493 0 89.6-40.107 89.6-89.6s-40.107-89.6-89.6-89.6-89.6 40.107-89.6 89.6 40.107 89.6 89.6 89.6zM512 324.267c126.933 0 260.267-62.080 260.267-89.6v-46.933h-520.533v46.933c0 27.52 133.333 89.6 260.267 89.6zM512 789.333c-94.293 0-170.667-76.373-170.667-170.667 0-94.080 76.373-170.667 170.667-170.667s170.667 76.587 170.667 170.667c0 94.293-76.373 170.667-170.667 170.667zM512 405.333c-113.707 0-341.333-56.96-341.333-170.667v-128h682.667v128c0 113.707-227.627 170.667-341.333 170.667z" />
<glyph unicode="&#xe616;" d="M426.667 618.667h-85.333v-170.667h-170.667v-85.333h170.667v-170.667h85.333v170.667h170.667v85.333h-170.667zM618.667 700.587v-77.653l106.667 21.333v-452.267h85.333v554.667z" />
<glyph unicode="&#xe617;" d="M810.667 832h-597.333c-47.147 0-85.333-38.187-85.333-85.333v-597.333c0-47.147 38.187-85.333 85.333-85.333h597.333c47.147 0 85.333 38.187 85.333 85.333v597.333c0 47.147-38.187 85.333-85.333 85.333zM384 234.667h-85.333v298.667h85.333v-298.667zM554.667 234.667h-85.333v426.667h85.333v-426.667zM725.333 234.667h-85.333v170.667h85.333v-170.667z" />
<glyph unicode="&#xe618;" d="M512 874.667c-235.733 0-426.667-190.933-426.667-426.667s190.933-426.667 426.667-426.667 426.667 190.933 426.667 426.667-190.933 426.667-426.667 426.667zM469.333 109.653c-168.32 20.907-298.667 164.267-298.667 338.347 0 26.24 3.2 51.84 8.96 76.373l204.373-204.373v-42.667c0-47.147 38.187-85.333 85.333-85.333v-82.347zM763.52 217.813c-10.88 34.56-42.88 59.52-80.853 59.52h-42.667v128c0 23.467-19.2 42.667-42.667 42.667h-256v85.333h85.333c23.467 0 42.667 19.2 42.667 42.667v85.333h85.333c47.147 0 85.333 38.187 85.333 85.333v17.707c125.013-50.56 213.333-173.013 213.333-316.373 0-88.747-34.133-169.387-89.813-230.187z" />
<glyph unicode="&#xe619;" d="M213.333 397.653v-170.667l298.667-162.987 298.667 162.987v170.667l-298.667-162.987-298.667 162.987zM512 832l-469.333-256 469.333-256 384 209.493v-294.827h85.333v341.333l-469.333 256z" />
<glyph unicode="&#xe61a;" d="M768 273.707c-32.427 0-61.653-12.587-83.84-32.853l-304 177.28c2.347 9.6 3.84 19.627 3.84 29.867s-1.493 20.267-3.84 29.867l300.8 175.573c22.827-21.333 53.333-34.56 87.040-34.56 70.613 0 128 57.387 128 128s-57.387 128-128 128-128-57.387-128-128c0-10.24 1.493-20.267 3.84-29.867l-300.8-175.573c-22.827 21.333-53.333 34.56-87.040 34.56-70.613 0-128-57.387-128-128s57.387-128 128-128c33.707 0 64.213 13.227 87.040 34.56l304-177.28c-2.133-8.96-3.413-18.347-3.413-27.947 0-68.693 55.68-124.373 124.373-124.373s124.373 55.68 124.373 124.373-55.68 124.373-124.373 124.373z" />
<glyph unicode="&#xe61b;" d="M576 931.413s31.573-113.067 31.573-204.8c0-87.893-57.6-159.36-145.707-159.36s-154.667 71.253-154.667 159.36l1.067 15.36c-85.76-102.613-137.6-234.88-137.6-379.307 0-188.587 152.747-341.333 341.333-341.333s341.333 152.747 341.333 341.333c0 230.187-110.72 435.413-277.333 568.747zM499.627 149.333c-75.947 0-137.6 59.947-137.6 133.973 0 69.333 44.587 117.973 120.107 133.12s153.6 51.413 196.907 109.867c16.64-55.040 25.387-113.067 25.387-172.16 0-112.853-91.733-204.8-204.8-204.8z" />
<glyph unicode="&#xe61c;" d="M213.333 277.333c0-164.907 133.76-298.667 298.667-298.667s298.667 133.76 298.667 298.667v170.667h-597.333v-170.667zM688 773.547l89.6 89.6-35.2 35.2-98.347-98.347c-40.107 19.84-84.48 32-132.053 32s-91.947-12.16-132.053-32l-98.347 98.347-35.2-35.2 89.6-89.6c-74.027-54.187-122.667-141.227-122.667-240.213v-42.667h597.333v42.667c0 98.987-48.64 186.027-122.667 240.213zM384 576c-23.68 0-42.667 19.2-42.667 42.667s18.987 42.667 42.667 42.667c23.68 0 42.667-19.2 42.667-42.667s-18.987-42.667-42.667-42.667zM640 576c-23.68 0-42.667 19.2-42.667 42.667s18.987 42.667 42.667 42.667c23.68 0 42.667-19.2 42.667-42.667s-18.987-42.667-42.667-42.667z" />
<glyph unicode="&#xe61d;" d="M607.573 447.573l98.987-98.987c11.947 30.933 18.773 64.427 18.773 99.413 0 34.773-6.613 68.053-18.347 98.773l-99.413-99.2zM833.28 673.493l-53.973-53.973c26.667-51.413 42.027-109.653 42.027-171.733s-15.36-120.107-42.027-171.733l51.2-51.2c41.173 66.133 65.493 143.573 65.493 226.773 0 81.493-23.253 157.227-62.72 221.867zM670.080 631.253l-243.413 243.413h-42.667v-323.627l-195.627 195.627-60.373-60.373 238.293-238.293-238.293-238.293 60.373-60.373 195.627 195.627v-323.627h42.667l243.413 243.413-183.040 183.253 183.040 183.253zM469.333 711.253l80.213-80.213-80.213-80v160.213zM549.547 264.747l-80.213-80v160.427l80.213-80.427z" />
<glyph unicode="&#xe61e;" d="M853.333 277.333h85.333v85.333h-85.333v-85.333zM853.333 661.333v-213.333h85.333v213.333h-85.333zM426.667 789.333c-188.587 0-341.333-152.747-341.333-341.333s152.747-341.333 341.333-341.333 341.333 152.747 341.333 341.333-152.747 341.333-341.333 341.333zM426.667 362.667c-47.147 0-85.333 38.187-85.333 85.333s38.187 85.333 85.333 85.333 85.333-38.187 85.333-85.333-38.187-85.333-85.333-85.333z" />
<glyph unicode="&#xe61f;" d="M512 874.667c-234.667 0-426.667-192-426.667-426.667s192-426.667 426.667-426.667 426.667 192 426.667 426.667-192 426.667-426.667 426.667zM170.667 448c0 187.733 153.6 341.333 341.333 341.333 78.933 0 151.467-27.733 209.067-72.533l-477.867-477.867c-44.8 57.6-72.533 130.133-72.533 209.067zM512 106.667c-78.933 0-151.467 27.733-209.067 72.533l477.867 477.867c44.8-57.6 72.533-130.133 72.533-209.067 0-187.733-153.6-341.333-341.333-341.333z" />
<glyph unicode="&#xe620;" d="M512 874.667c-235.733 0-426.667-190.933-426.667-426.667s190.933-426.667 426.667-426.667 426.667 190.933 426.667 426.667-190.933 426.667-426.667 426.667zM512 106.667c-188.587 0-341.333 152.747-341.333 341.333 0 78.933 27.093 151.253 71.893 209.067l478.507-478.507c-57.813-44.8-130.133-71.893-209.067-71.893zM781.44 238.933l-478.507 478.507c57.813 44.8 130.133 71.893 209.067 71.893 188.587 0 341.333-152.747 341.333-341.333 0-78.933-27.093-151.253-71.893-209.067z" />
<glyph unicode="&#xe621;" d="M807.253 746.24c-8.747 25.173-32.64 43.093-60.587 43.093h-469.333c-27.947 0-51.84-17.92-60.587-43.093l-88.747-255.573v-341.333c0-23.467 19.2-42.667 42.667-42.667h42.667c23.68 0 42.667 19.2 42.667 42.667v42.667h512v-42.667c0-23.467 19.2-42.667 42.667-42.667h42.667c23.68 0 42.667 19.2 42.667 42.667v341.333l-88.747 255.573zM277.333 320c-35.413 0-64 28.587-64 64s28.587 64 64 64 64-28.587 64-64-28.587-64-64-64zM746.667 320c-35.413 0-64 28.587-64 64s28.587 64 64 64 64-28.587 64-64-28.587-64-64-64zM213.333 533.333l64 192h469.333l64-192h-597.333z" />
<glyph unicode="&#xe622;" d="M705.28 488.107l-45.227 45.227-208.213-208.213-90.453 90.453-45.227-45.227 135.68-135.68 253.44 253.44zM810.667 832h-42.667v85.333h-85.333v-85.333h-341.333v85.333h-85.333v-85.333h-42.667c-47.147 0-84.907-38.187-84.907-85.333l-0.427-597.333c0-47.147 38.187-85.333 85.333-85.333h597.333c47.147 0 85.333 38.187 85.333 85.333v597.333c0 47.147-38.187 85.333-85.333 85.333zM810.667 149.333h-597.333v469.333h597.333v-469.333z" />
<glyph unicode="&#xe623;" d="M397.227 234.667l104.107 104.107 104.107-104.107 45.227 45.227-104.107 104.107 104.107 104.107-45.227 45.227-104.107-104.107-104.107 104.107-45.227-45.227 104.107-104.107-104.107-104.107 45.227-45.227zM810.667 832h-42.667v85.333h-85.333v-85.333h-341.333v85.333h-85.333v-85.333h-42.667c-47.147 0-84.907-38.187-84.907-85.333l-0.427-597.333c0-47.147 38.187-85.333 85.333-85.333h597.333c47.147 0 85.333 38.187 85.333 85.333v597.333c0 47.147-38.187 85.333-85.333 85.333zM810.667 149.333h-597.333v469.333h597.333v-469.333z" />
<glyph unicode="&#xe624;" d="M725.333 533.333h-426.667v-85.333h426.667v85.333zM810.667 832h-42.667v85.333h-85.333v-85.333h-341.333v85.333h-85.333v-85.333h-42.667c-47.147 0-84.907-38.187-84.907-85.333l-0.427-597.333c0-47.147 38.187-85.333 85.333-85.333h597.333c47.147 0 85.333 38.187 85.333 85.333v597.333c0 47.147-38.187 85.333-85.333 85.333zM810.667 149.333h-597.333v469.333h597.333v-469.333zM597.333 362.667h-298.667v-85.333h298.667v85.333z" />
<glyph unicode="&#xe625;" d="M853.333 704h-341.333l-85.333 85.333h-256c-47.147 0-85.333-38.187-85.333-85.333v-512c0-47.147 38.187-85.333 85.333-85.333h682.667c47.147 0 85.333 38.187 85.333 85.333v426.667c0 47.147-38.187 85.333-85.333 85.333zM579.413 192l-152.747 89.387-152.747-89.387 40.32 173.653-134.827 116.693 177.707 15.36 69.547 163.627 69.333-163.627 177.707-15.36-134.827-116.693 40.533-173.653z" />
<glyph unicode="&#xe626;" d="M853.333 874.667h-682.667c-47.147 0-84.907-38.187-84.907-85.333l-0.427-768 170.667 170.667h597.333c47.147 0 85.333 38.187 85.333 85.333v512c0 47.147-38.187 85.333-85.333 85.333zM213.333 362.667l149.333 192 106.667-128.213 149.333 192.213 192-256h-597.333z" />
<glyph unicode="&#xe627;" d="M938.667 832h-640c-29.44 0-52.693-14.933-68.053-37.547l-230.613-346.24 230.613-346.24c15.36-22.613 41.387-37.973 70.827-37.973h637.227c47.147 0 85.333 38.187 85.333 85.333v597.333c0 47.147-38.187 85.333-85.333 85.333zM384 384c-35.413 0-64 28.587-64 64s28.587 64 64 64 64-28.587 64-64-28.587-64-64-64zM597.333 384c-35.413 0-64 28.587-64 64s28.587 64 64 64 64-28.587 64-64-28.587-64-64-64zM810.667 384c-35.413 0-64 28.587-64 64s28.587 64 64 64 64-28.587 64-64-28.587-64-64-64z" />
<glyph unicode="&#xe628;" d="M832 533.333c7.253 0 14.293-1.28 21.333-2.133v386.133l-810.667-810.667h554.667v128c0 37.76 16.427 71.893 42.667 95.36v11.307c0 105.813 86.187 192 192 192zM938.667 277.333v64c0 58.88-47.787 106.667-106.667 106.667s-106.667-47.787-106.667-106.667v-64c-23.467 0-42.667-19.2-42.667-42.667v-170.667c0-23.467 19.2-42.667 42.667-42.667h213.333c23.467 0 42.667 19.2 42.667 42.667v170.667c0 23.467-19.2 42.667-42.667 42.667zM896 277.333h-128v64c0 35.413 28.587 64 64 64s64-28.587 64-64v-64z" />
<glyph unicode="&#xe629;" d="M627.413 554.667l97.92 97.92v-161.92h21.333l121.813 121.813-91.733 91.52 91.52 91.52-121.6 121.813h-21.333v-161.92l-97.92 97.92-30.080-30.080 119.253-119.253-119.253-119.253 30.080-30.080zM768 835.627l40.107-40.107-40.107-40.107v80.213zM768 652.587l40.107-40.107-40.107-40.107v80.213zM853.333 298.667c-53.12 0-104.32 8.533-152.32 24.32-14.72 4.693-31.573 1.28-43.307-10.453l-93.867-94.080c-120.96 61.44-219.52 160.213-281.173 280.96l93.867 94.080c11.733 11.733 15.147 28.587 10.453 43.307-15.787 48-24.32 99.413-24.32 152.533 0 23.68-18.987 42.667-42.667 42.667h-149.333c-23.68 0-42.667-18.987-42.667-42.667 0-400.64 324.693-725.333 725.333-725.333 23.68 0 42.667 18.987 42.667 42.667v149.333c0 23.68-18.987 42.667-42.667 42.667z" />
<glyph unicode="&#xe62a;" d="M768 490.667l213.333 213.333-213.333 213.333v-128h-170.667v-170.667h170.667v-128zM853.333 298.667c-53.12 0-104.32 8.533-152.32 24.32-14.72 4.693-31.573 1.28-43.307-10.453l-93.867-94.080c-120.96 61.44-219.52 160.213-281.173 280.96l93.867 94.080c11.733 11.733 15.147 28.587 10.453 43.307-15.787 48.213-24.32 99.413-24.32 152.533 0 23.68-18.987 42.667-42.667 42.667h-149.333c-23.68 0-42.667-18.987-42.667-42.667 0-400.64 324.693-725.333 725.333-725.333 23.68 0 42.667 18.987 42.667 42.667v149.333c0 23.68-18.987 42.667-42.667 42.667z" />
<glyph unicode="&#xe62b;" d="M853.333 298.667c-53.12 0-104.32 8.533-152.32 24.32-14.72 4.693-31.573 1.28-43.307-10.453l-93.867-94.080c-120.96 61.44-219.52 160.213-281.173 280.96l93.867 94.080c11.733 11.733 15.147 28.587 10.453 43.307-15.787 48-24.32 99.413-24.32 152.533 0 23.68-18.987 42.667-42.667 42.667h-149.333c-23.68 0-42.667-18.987-42.667-42.667 0-400.64 324.693-725.333 725.333-725.333 23.68 0 42.667 18.987 42.667 42.667v149.333c0 23.68-18.987 42.667-42.667 42.667zM810.667 448h85.333c0 212.053-171.947 384-384 384v-85.333c164.907 0 298.667-133.76 298.667-298.667zM640 448h85.333c0 117.76-95.573 213.333-213.333 213.333v-85.333c70.613 0 128-57.387 128-128z" />
<glyph unicode="&#xe62c;" d="M853.333 298.667c-53.12 0-104.533 8.533-152.32 24.32-14.72 4.693-31.573 1.28-43.307-10.453l-93.867-94.080c-120.96 61.44-219.52 160.213-281.173 280.96l93.867 94.080c11.733 11.733 15.147 28.587 10.453 43.307-15.787 48-24.32 99.413-24.32 152.533 0 23.68-18.987 42.667-42.667 42.667h-149.333c-23.467 0-42.667-18.987-42.667-42.667 0-400.64 324.693-725.333 725.333-725.333 23.68 0 42.667 18.987 42.667 42.667v149.333c0 23.68-18.987 42.667-42.667 42.667zM853.333 789.333v21.333c0 58.88-47.787 106.667-106.667 106.667s-106.667-47.787-106.667-106.667v-21.333c-23.68 0-42.667-19.2-42.667-42.667v-170.667c0-23.467 18.987-42.667 42.667-42.667h213.333c23.68 0 42.667 19.2 42.667 42.667v170.667c0 23.467-18.987 42.667-42.667 42.667zM819.2 789.333h-145.067v21.333c0 40.107 32.427 72.533 72.533 72.533s72.533-32.427 72.533-72.533v-21.333z" />
<glyph unicode="&#xe62d;" d="M277.333 725.333l234.667-234.667 298.667 298.667-42.667 42.667-256-256-192 192h149.333v64h-256v-256h64v149.333zM1011.413 248.747c-129.92 123.52-305.92 199.253-499.413 199.253s-369.493-75.733-499.413-199.253c-7.893-7.893-12.587-18.56-12.587-30.293s4.693-22.4 12.587-30.080l105.6-105.813c7.68-7.68 18.347-12.587 30.293-12.587 11.52 0 22.187 4.693 29.867 12.16 33.707 31.36 72.107 58.027 113.707 79.147 14.080 7.040 23.893 21.547 23.893 38.4v132.48c61.653 19.84 127.573 30.507 196.053 30.507s134.4-10.667 196.267-30.72v-132.48c0-16.853 9.813-31.36 23.893-38.4 41.6-20.907 80-47.573 113.707-79.147 7.68-7.467 18.133-12.16 29.867-12.16s22.4 4.693 30.293 12.587l105.6 105.813c7.68 7.68 12.587 18.347 12.587 30.080s-4.907 22.613-12.8 30.507z" />
<glyph unicode="&#xe62e;" d="M725.333 832h-85.333v-298.667h85.333v298.667zM853.333 298.667c-53.12 0-104.32 8.533-152.32 24.32-14.72 4.693-31.573 1.28-43.307-10.453l-93.867-94.080c-120.96 61.44-219.52 160.213-281.173 280.96l93.867 94.080c11.733 11.733 15.147 28.587 10.453 43.307-15.787 48-24.32 99.413-24.32 152.533 0 23.68-18.987 42.667-42.667 42.667h-149.333c-23.68 0-42.667-18.987-42.667-42.667 0-400.64 324.693-725.333 725.333-725.333 23.68 0 42.667 18.987 42.667 42.667v149.333c0 23.68-18.987 42.667-42.667 42.667zM810.667 832v-298.667h85.333v298.667h-85.333z" />
<glyph unicode="&#xe62f;" d="M853.333 704h-170.667v85.333l-85.333 85.333h-170.667l-85.333-85.333v-85.333h-170.667c-47.147 0-84.907-38.187-84.907-85.333l-0.427-469.333c0-47.147 38.187-85.333 85.333-85.333h682.667c47.147 0 85.333 38.187 85.333 85.333v469.333c0 47.147-38.187 85.333-85.333 85.333zM426.667 789.333h170.667v-85.333h-170.667v85.333zM512 149.333l-213.333 213.333h128v170.667h170.667v-170.667h128l-213.333-213.333z" />
<glyph unicode="&#xe630;" d="M853.333 704h-170.667v85.333l-85.333 85.333h-170.667l-85.333-85.333v-85.333h-170.667c-47.147 0-84.907-38.187-84.907-85.333l-0.427-469.333c0-47.147 38.187-85.333 85.333-85.333h682.667c47.147 0 85.333 38.187 85.333 85.333v469.333c0 47.147-38.187 85.333-85.333 85.333zM426.667 789.333h170.667v-85.333h-170.667v85.333zM448 213.333l-149.333 149.333 60.373 60.373 88.96-88.96 220.8 220.8 60.373-60.373-281.173-281.173z" />
<glyph unicode="&#xe631;" d="M768 874.667h-341.333l-255.147-256-0.853-512c0-46.933 38.4-85.333 85.333-85.333h512c46.933 0 85.333 38.4 85.333 85.333v682.667c0 46.933-38.4 85.333-85.333 85.333zM512 618.667h-85.333v170.667h85.333v-170.667zM640 618.667h-85.333v170.667h85.333v-170.667zM768 618.667h-85.333v170.667h85.333v-170.667z" />
<glyph unicode="&#xe632;" d="M768 874.667h-341.333l-254.933-256-1.067-512c0-46.933 38.4-85.333 85.333-85.333h512c46.933 0 85.333 38.4 85.333 85.333v682.667c0 46.933-38.4 85.333-85.333 85.333zM554.667 234.667h-85.333v85.333h85.333v-85.333zM554.667 405.333h-85.333v213.333h85.333v-213.333z" />
<glyph unicode="&#xe633;" d="M853.333 874.667h-682.667c-47.147 0-84.907-38.187-84.907-85.333l-0.427-768 170.667 170.667h597.333c47.147 0 85.333 38.187 85.333 85.333v512c0 47.147-38.187 85.333-85.333 85.333zM384 490.667h-85.333v85.333h85.333v-85.333zM554.667 490.667h-85.333v85.333h85.333v-85.333zM725.333 490.667h-85.333v85.333h85.333v-85.333z" />
<glyph unicode="&#xe634;" d="M853.333 874.667h-682.667c-47.147 0-84.907-38.187-84.907-85.333l-0.427-768 170.667 170.667h597.333c47.147 0 85.333 38.187 85.333 85.333v512c0 47.147-38.187 85.333-85.333 85.333zM554.667 362.667h-85.333v85.333h85.333v-85.333zM554.667 533.333h-85.333v170.667h85.333v-170.667z" />
<glyph unicode="&#xe635;" d="M512 789.333v128l-170.667-170.667 170.667-170.667v128c141.44 0 256-114.56 256-256 0-43.307-10.88-83.84-29.653-119.68l62.293-62.293c33.067 52.907 52.693 114.987 52.693 181.973 0 188.587-152.747 341.333-341.333 341.333zM512 192c-141.44 0-256 114.56-256 256 0 43.307 10.88 83.84 29.653 119.68l-62.293 62.293c-33.067-52.907-52.693-114.987-52.693-181.973 0-188.587 152.747-341.333 341.333-341.333v-128l170.667 170.667-170.667 170.667v-128z" />
<glyph unicode="&#xe636;" d="M426.667 689.067v89.173c-34.133-8.747-65.92-22.827-95.147-40.96l62.507-62.507c10.453 5.333 21.333 10.453 32.64 14.293zM122.24 729.173l100.48-100.48c-32.853-52.48-52.053-114.133-52.053-180.693 0-94.293 38.613-179.2 100.48-240.853l-100.48-100.48h256v256l-95.36-95.36c-46.507 46.293-75.307 110.080-75.307 180.693 0 42.667 10.667 82.773 29.227 118.187l344.96-344.96c-10.453-5.547-21.333-10.453-32.64-14.507v-88.96c34.133 8.747 65.92 22.827 95.147 40.96l100.693-100.693 54.4 54.4-671.36 671.147-54.187-54.4zM853.333 789.333h-256v-256l95.36 95.36c46.507-46.293 75.307-110.080 75.307-180.693 0-42.667-10.667-82.773-29.227-118.187l62.507-62.507c32.853 52.48 52.053 114.133 52.053 180.693 0 94.293-38.613 179.2-100.48 240.853l100.48 100.48z" />
<glyph unicode="&#xe637;" d="M128 448c0-94.293 38.827-179.2 100.48-240.853l-100.48-100.48h256v256l-95.36-95.36c-46.507 46.293-75.307 110.080-75.307 180.693 0 111.36 71.253 205.867 170.667 241.067v89.173c-147.2-37.973-256-171.307-256-330.24zM469.333 234.667h85.333v85.333h-85.333v-85.333zM896 789.333h-256v-256l95.36 95.36c46.507-46.293 75.307-110.080 75.307-180.693 0-111.36-71.253-205.867-170.667-241.067v-88.96c147.2 37.76 256 171.093 256 330.027 0 94.293-38.827 179.2-100.48 240.853l100.48 100.48zM469.333 405.333h85.333v256h-85.333v-256z" />
<glyph unicode="&#xe638;" d="M725.333 916.907l-426.667 0.427c-47.147 0-85.333-38.187-85.333-85.333v-768c0-47.147 38.187-85.333 85.333-85.333h426.667c47.147 0 85.333 38.187 85.333 85.333v768c0 47.147-38.187 84.907-85.333 84.907zM725.333 149.333h-426.667v597.333h426.667v-597.333zM682.667 405.333h-128v213.333h-85.333v-213.333h-128l170.667-170.667 170.667 170.667z" />
<glyph unicode="&#xe639;" d="M85.333 277.333v-85.333c117.76 0 213.333-95.573 213.333-213.333h85.333c0 164.907-133.76 298.667-298.667 298.667zM85.333 106.667v-128h128c0 70.613-57.387 128-128 128zM85.333 448v-85.333c212.053 0 384-171.947 384-384h85.333c0 259.2-210.133 469.333-469.333 469.333zM725.333 916.907l-426.667 0.427c-47.147 0-85.333-38.187-85.333-85.333v-314.453c29.44-7.040 58.027-15.787 85.333-27.307v256.427h426.667v-554.667h-129.28c22.187-53.12 35.84-110.72 40.533-170.667h88.747c47.147 0 85.333 38.187 85.333 85.333v725.333c0 47.147-38.187 84.907-85.333 84.907z" />
<glyph unicode="&#xe63a;" d="M807.253 746.24c-8.747 25.173-32.64 43.093-60.587 43.093h-469.333c-27.947 0-51.84-17.92-60.587-43.093l-88.747-255.573v-341.333c0-23.467 19.2-42.667 42.667-42.667h42.667c23.68 0 42.667 19.2 42.667 42.667v42.667h512v-42.667c0-23.467 19.2-42.667 42.667-42.667h42.667c23.68 0 42.667 19.2 42.667 42.667v341.333l-88.747 255.573zM277.333 320c-35.413 0-64 28.587-64 64s28.587 64 64 64 64-28.587 64-64-28.587-64-64-64zM746.667 320c-35.413 0-64 28.587-64 64s28.587 64 64 64 64-28.587 64-64-28.587-64-64-64zM213.333 533.333l64 192h469.333l64-192h-597.333z" />
<glyph unicode="&#xe63b;" d="M0 320h85.333v256h-85.333v-256zM128 234.667h85.333v426.667h-85.333v-426.667zM938.667 576v-256h85.333v256h-85.333zM810.667 234.667h85.333v426.667h-85.333v-426.667zM704 832h-384c-35.413 0-64-28.587-64-64v-640c0-35.413 28.587-64 64-64h384c35.413 0 64 28.587 64 64v640c0 35.413-28.587 64-64 64zM682.667 149.333h-341.333v597.333h341.333v-597.333z" />
<glyph unicode="&#xe63c;" d="M853.333 874.667h-682.667c-47.147 0-84.907-38.187-84.907-85.333l-0.427-768 170.667 170.667h597.333c47.147 0 85.333 38.187 85.333 85.333v512c0 47.147-38.187 85.333-85.333 85.333zM768 362.667l-170.667 136.533v-136.533h-341.333v341.333h341.333v-136.533l170.667 136.533v-341.333z" />
<glyph unicode="&#xe63d;" d="M938.667 789.333v21.333c0 58.88-47.787 106.667-106.667 106.667s-106.667-47.787-106.667-106.667v-21.333c-23.68 0-42.667-19.2-42.667-42.667v-170.667c0-23.467 18.987-42.667 42.667-42.667h213.333c23.68 0 42.667 19.2 42.667 42.667v170.667c0 23.467-18.987 42.667-42.667 42.667zM904.533 789.333h-145.067v21.333c0 40.107 32.427 72.533 72.533 72.533s72.533-32.427 72.533-72.533v-21.333zM807.467 448c1.707-14.080 3.2-28.16 3.2-42.667 0-88.747-34.133-169.387-89.813-230.187-10.88 34.56-42.88 59.52-80.853 59.52h-42.667v128c0 23.467-19.2 42.667-42.667 42.667h-256v85.333h85.333c23.467 0 42.667 19.2 42.667 42.667v85.333h85.333c47.147 0 85.333 38.187 85.333 85.333v108.373c-40.32 12.8-83.413 19.627-128 19.627-235.733 0-426.667-190.933-426.667-426.667s190.933-426.667 426.667-426.667 426.667 190.933 426.667 426.667c0 14.507-0.853 28.587-2.133 42.667h-86.4zM426.667 66.987c-168.32 20.907-298.667 164.267-298.667 338.347 0 26.24 3.2 51.84 8.96 76.373l204.373-204.373v-42.667c0-47.147 38.187-85.333 85.333-85.333v-82.347z" />
<glyph unicode="&#xe63e;" d="M170.667 618.667h170.667v170.667h-170.667v-170.667zM426.667 106.667h170.667v170.667h-170.667v-170.667zM170.667 106.667h170.667v170.667h-170.667v-170.667zM170.667 362.667h170.667v170.667h-170.667v-170.667zM426.667 362.667h170.667v170.667h-170.667v-170.667zM682.667 789.333v-170.667h170.667v170.667h-170.667zM426.667 618.667h170.667v170.667h-170.667v-170.667zM682.667 362.667h170.667v170.667h-170.667v-170.667zM682.667 106.667h170.667v170.667h-170.667v-170.667z" />
<glyph unicode="&#xe63f;" d="M853.333 490.667h-519.253l238.293 238.293-60.373 60.373-341.333-341.333 341.333-341.333 60.373 60.373-238.293 238.293h519.253v85.333z" />
<glyph unicode="&#xe640;" d="M298.667 533.333l213.333-213.333 213.333 213.333z" />
<glyph unicode="&#xe641;" d="M512 874.667c-235.733 0-426.667-190.933-426.667-426.667s190.933-426.667 426.667-426.667 426.667 190.933 426.667 426.667-190.933 426.667-426.667 426.667zM512 362.667l-170.667 170.667h341.333l-170.667-170.667z" />
<glyph unicode="&#xe642;" d="M298.667 362.667l213.333 213.333 213.333-213.333z" />
<glyph unicode="&#xe643;" d="M512 789.333l-60.373-60.373 238.293-238.293h-519.253v-85.333h519.253l-238.293-238.293 60.373-60.373 341.333 341.333z" />
<glyph unicode="&#xe644;" d="M512 874.667c-235.733 0-426.667-190.933-426.667-426.667s190.933-426.667 426.667-426.667 426.667 190.933 426.667 426.667-190.933 426.667-426.667 426.667zM725.333 295.040l-60.373-60.373-152.96 152.96-152.96-152.96-60.373 60.373 152.96 152.96-152.96 152.96 60.373 60.373 152.96-152.96 152.96 152.96 60.373-60.373-152.96-152.96 152.96-152.96z" />
<glyph unicode="&#xe645;" d="M384 270.080l-177.92 177.92-60.373-60.373 238.293-238.293 512 512-60.373 60.373z" />
<glyph unicode="&#xe646;" d="M657.707 643.627l-60.373 60.373-256-256 256-256 60.373 60.373-195.627 195.627z" />
<glyph unicode="&#xe647;" d="M426.667 704l-60.373-60.373 195.627-195.627-195.627-195.627 60.373-60.373 256 256z" />
<glyph unicode="&#xe648;" d="M810.667 686.293l-60.373 60.373-238.293-238.293-238.293 238.293-60.373-60.373 238.293-238.293-238.293-238.293 60.373-60.373 238.293 238.293 238.293-238.293 60.373 60.373-238.293 238.293z" />
<glyph unicode="&#xe649;" d="M512 618.667l-256-256 60.373-60.373 195.627 195.627 195.627-195.627 60.373 60.373z" />
<glyph unicode="&#xe64a;" d="M707.627 593.707l-195.627-195.627-195.627 195.627-60.373-60.373 256-256 256 256z" />
<glyph unicode="&#xe64b;" d="M298.667 362.667h-85.333v-213.333h213.333v85.333h-128v128zM213.333 533.333h85.333v128h128v85.333h-213.333v-213.333zM725.333 234.667h-128v-85.333h213.333v213.333h-85.333v-128zM597.333 746.667v-85.333h128v-128h85.333v213.333h-213.333z" />
<glyph unicode="&#xe64c;" d="M213.333 277.333h128v-128h85.333v213.333h-213.333v-85.333zM341.333 618.667h-128v-85.333h213.333v213.333h-85.333v-128zM597.333 149.333h85.333v128h128v85.333h-213.333v-213.333zM682.667 618.667v128h-85.333v-213.333h213.333v85.333h-128z" />
<glyph unicode="&#xe64d;" d="M128 192h768v85.333h-768v-85.333zM128 405.333h768v85.333h-768v-85.333zM128 704v-85.333h768v85.333h-768z" />
<glyph unicode="&#xe64e;" d="M256 533.333c-47.147 0-85.333-38.187-85.333-85.333s38.187-85.333 85.333-85.333 85.333 38.187 85.333 85.333-38.187 85.333-85.333 85.333zM768 533.333c-47.147 0-85.333-38.187-85.333-85.333s38.187-85.333 85.333-85.333 85.333 38.187 85.333 85.333-38.187 85.333-85.333 85.333zM512 533.333c-47.147 0-85.333-38.187-85.333-85.333s38.187-85.333 85.333-85.333 85.333 38.187 85.333 85.333-38.187 85.333-85.333 85.333z" />
<glyph unicode="&#xe64f;" d="M512 618.667c47.147 0 85.333 38.187 85.333 85.333s-38.187 85.333-85.333 85.333-85.333-38.187-85.333-85.333 38.187-85.333 85.333-85.333zM512 533.333c-47.147 0-85.333-38.187-85.333-85.333s38.187-85.333 85.333-85.333 85.333 38.187 85.333 85.333-38.187 85.333-85.333 85.333zM512 277.333c-47.147 0-85.333-38.187-85.333-85.333s38.187-85.333 85.333-85.333 85.333 38.187 85.333 85.333-38.187 85.333-85.333 85.333z" />
<glyph unicode="&#xe650;" d="M753.067 689.067c-61.653 61.867-146.773 100.267-241.067 100.267-188.587 0-340.907-152.747-340.907-341.333s152.32-341.333 340.907-341.333c158.933 0 292.053 108.8 329.813 256h-88.747c-35.2-99.413-129.493-170.667-241.067-170.667-141.44 0-256 114.56-256 256s114.56 256 256 256c70.613 0 133.973-29.44 180.267-75.733l-137.6-137.6h298.667v298.667l-100.267-100.267z" />
<glyph unicode="&#xe651;" d="M316.373 167.040l60.373-60.373 135.253 135.253 135.253-135.253 60.373 60.373-195.627 195.627-195.627-195.627zM707.627 728.96l-60.373 60.373-135.253-135.253-135.253 135.253-60.373-60.373 195.627-195.627 195.627 195.627z" />
<glyph unicode="&#xe652;" d="M512 711.253l135.253-135.253 60.373 60.373-195.627 195.627-195.627-195.627 60.373-60.373 135.253 135.253zM512 184.747l-135.253 135.253-60.373-60.373 195.627-195.627 195.627 195.627-60.373 60.373-135.253-135.253z" />
<glyph unicode="&#xe653;" d="M810.667 917.333h-597.333c-47.147 0-84.907-38.187-84.907-85.333l-0.427-551.893c0-29.44 14.933-55.467 37.547-70.827l346.24-230.613 346.24 230.613c22.613 15.36 37.547 41.387 37.547 70.827l0.427 551.893c0 47.147-38.187 85.333-85.333 85.333zM426.667 277.333l-213.333 213.333 60.373 60.373 152.96-152.96 323.627 323.627 60.373-60.373-384-384z" />
<glyph unicode="&#xe654;" d="M926.080 478.080l-384 384c-16.64 16.64-43.733 16.64-60.16 0l-384-384c-16.64-16.64-16.64-43.733 0-60.373l384-384c16.64-16.64 43.733-16.64 60.373 0l384 384c16.64 16.853 16.64 43.733-0.213 60.373zM597.333 341.333v106.667h-170.667v-128h-85.333v170.667c0 23.68 18.987 42.667 42.667 42.667h213.333v106.667l149.333-149.333-149.333-149.333z" />
<glyph unicode="&#xe655;" d="M682.667 755.2c42.24 0 76.8 34.347 76.8 76.8s-34.56 76.8-76.8 76.8c-42.453 0-76.8-34.347-76.8-76.8s34.347-76.8 76.8-76.8zM810.667 448c-117.76 0-213.333-95.573-213.333-213.333s95.573-213.333 213.333-213.333 213.333 95.573 213.333 213.333-95.573 213.333-213.333 213.333zM810.667 85.333c-82.56 0-149.333 66.773-149.333 149.333s66.773 149.333 149.333 149.333 149.333-66.773 149.333-149.333-66.773-149.333-149.333-149.333zM631.467 533.333h179.2v76.8h-136.533l-82.56 139.307c-12.587 21.333-35.84 35.627-62.507 35.627-20.053 0-38.187-8.107-51.2-21.333l-157.867-157.653c-13.227-13.227-21.333-31.36-21.333-51.413 0-26.88 14.293-49.493 36.267-62.72l142.933-86.613v-213.333h76.8v276.48l-96 71.253 98.987 99.413 73.813-105.813zM213.333 448c-117.76 0-213.333-95.573-213.333-213.333s95.573-213.333 213.333-213.333 213.333 95.573 213.333 213.333-95.573 213.333-213.333 213.333zM213.333 85.333c-82.56 0-149.333 66.773-149.333 149.333s66.773 149.333 149.333 149.333 149.333-66.773 149.333-149.333-66.773-149.333-149.333-149.333z" />
<glyph unicode="&#xe656;" d="M170.667 277.333c0-37.76 16.64-71.253 42.667-94.72v-75.947c0-23.467 19.2-42.667 42.667-42.667h42.667c23.68 0 42.667 19.2 42.667 42.667v42.667h341.333v-42.667c0-23.467 18.987-42.667 42.667-42.667h42.667c23.467 0 42.667 19.2 42.667 42.667v75.947c26.027 23.467 42.667 56.96 42.667 94.72v426.667c0 149.333-152.747 170.667-341.333 170.667s-341.333-21.333-341.333-170.667v-426.667zM320 234.667c-35.413 0-64 28.587-64 64s28.587 64 64 64 64-28.587 64-64-28.587-64-64-64zM704 234.667c-35.413 0-64 28.587-64 64s28.587 64 64 64 64-28.587 64-64-28.587-64-64-64zM768 490.667h-512v213.333h512v-213.333z" />
<glyph unicode="&#xe657;" d="M807.253 703.573c-8.747 25.173-32.64 43.093-60.587 43.093h-469.333c-27.947 0-51.84-17.92-60.587-43.093l-88.747-255.573v-341.333c0-23.467 19.2-42.667 42.667-42.667h42.667c23.68 0 42.667 19.2 42.667 42.667v42.667h512v-42.667c0-23.467 19.2-42.667 42.667-42.667h42.667c23.68 0 42.667 19.2 42.667 42.667v341.333l-88.747 255.573zM277.333 277.333c-35.413 0-64 28.587-64 64s28.587 64 64 64 64-28.587 64-64-28.587-64-64-64zM746.667 277.333c-35.413 0-64 28.587-64 64s28.587 64 64 64 64-28.587 64-64-28.587-64-64-64zM213.333 490.667l64 192h469.333l64-192h-597.333z" />
<glyph unicode="&#xe658;" d="M853.333 64c-59.307 0-118.613 20.053-170.667 56.533-104.107-72.96-237.227-72.96-341.333 0-52.053-36.48-111.36-56.533-170.667-56.533h-85.333v-85.333h85.333c58.667 0 116.907 14.72 170.667 42.453 107.52-55.253 233.813-55.253 341.333 0 53.76-27.52 112-42.453 170.667-42.453h85.333v85.333h-85.333zM168.32 149.333h2.347c68.267 0 129.067 37.547 170.667 85.333 41.6-47.787 102.4-85.333 170.667-85.333s129.067 37.547 170.667 85.333c41.813-47.787 102.187-85.333 170.667-85.333h2.347l80.853 285.227c3.627 10.88 2.56 22.827-2.56 33.067-5.333 10.24-14.507 17.92-25.6 21.12l-55.040 18.133v197.12c0 47.147-38.187 85.333-85.333 85.333h-128v128h-256v-128h-128c-47.147 0-85.333-38.187-85.333-85.333v-197.12l-54.827-17.92c-11.093-3.413-20.267-10.88-25.6-21.12s-6.187-22.187-2.56-33.067l80.64-285.44zM256 704h512v-169.173l-256 83.84-256-83.84v169.173z" />
<glyph unicode="&#xe659;" d="M512 874.667c-188.587 0-341.333-21.333-341.333-170.667v-405.333c0-82.56 66.987-149.333 149.333-149.333l-64-64v-21.333h512v21.333l-64 64c82.56 0 149.333 66.773 149.333 149.333v405.333c0 149.333-152.747 170.667-341.333 170.667zM320 234.667c-35.413 0-64 28.587-64 64s28.587 64 64 64 64-28.587 64-64-28.587-64-64-64zM469.333 490.667h-213.333v213.333h213.333v-213.333zM704 234.667c-35.413 0-64 28.587-64 64s28.587 64 64 64 64-28.587 64-64-28.587-64-64-64zM768 490.667h-213.333v213.333h213.333v-213.333z" />
<glyph unicode="&#xe65a;" d="M170.667 298.667c0-82.56 66.987-149.333 149.333-149.333l-64-64v-21.333h512v21.333l-64 64c82.56 0 149.333 66.773 149.333 149.333v448c0 149.333-152.747 170.667-341.333 170.667s-341.333-21.333-341.333-170.667v-448zM512 234.667c-47.147 0-85.333 38.187-85.333 85.333s38.187 85.333 85.333 85.333 85.333-38.187 85.333-85.333-38.187-85.333-85.333-85.333zM768 533.333h-512v213.333h512v-213.333z" />
<glyph unicode="&#xe65b;" d="M512 874.667c-188.587 0-341.333-21.333-341.333-170.667v-405.333c0-82.56 66.987-149.333 149.333-149.333l-64-64v-21.333h512v21.333l-64 64c82.56 0 149.333 66.773 149.333 149.333v405.333c0 149.333-152.747 170.667-341.333 170.667zM320 234.667c-35.413 0-64 28.587-64 64s28.587 64 64 64 64-28.587 64-64-28.587-64-64-64zM469.333 490.667h-213.333v213.333h213.333v-213.333zM704 234.667c-35.413 0-64 28.587-64 64s28.587 64 64 64 64-28.587 64-64-28.587-64-64-64zM768 490.667h-213.333v213.333h213.333v-213.333z" />
<glyph unicode="&#xe65c;" d="M597.333 797.867c42.24 0 76.8 34.347 76.8 76.8s-34.56 76.8-76.8 76.8c-42.453 0-76.8-34.347-76.8-76.8s34.347-76.8 76.8-76.8zM602.453 533.333h208.213v76.8h-154.667l-85.333 142.080c-12.587 21.333-35.84 35.413-62.293 35.413-7.253 0-14.293-1.067-20.907-2.987l-231.467-72.107v-221.867h76.8v156.373l89.813 27.947-166.613-653.653h76.8l122.453 346.027 99.413-132.693v-213.333h76.8v273.28l-106.24 193.707 31.36 122.453 45.867-77.44z" />
<glyph unicode="&#xe65d;" d="M896 277.333v85.333l-341.333 213.333v234.667c0 35.413-28.587 64-64 64s-64-28.587-64-64v-234.667l-341.333-213.333v-85.333l341.333 106.667v-234.667l-85.333-64v-64l149.333 42.667 149.333-42.667v64l-85.333 64v234.667l341.333-106.667z" />
<glyph unicode="&#xe65e;" d="M298.667 405.333c70.613 0 128 57.387 128 128s-57.387 128-128 128-128-57.387-128-128 57.387-128 128-128zM810.667 661.333h-341.333v-298.667h-341.333v384h-85.333v-640h85.333v128h768v-128h85.333v384c0 94.293-76.373 170.667-170.667 170.667z" />
<glyph unicode="&#xe65f;" d="M511.787 168.96l-314.667 244.693-69.12-53.76 384-298.667 384 298.667-69.547 53.973-314.667-244.907zM512 277.333l384 298.667-384 298.667-384-298.667 69.547-53.973 314.453-244.693z" />
<glyph unicode="&#xe660;" d="M845.227 320.427l50.773 39.467-60.8 60.8-50.773-39.467 60.8-60.8zM826.24 521.6l69.76 54.4-384 298.667-124.373-96.64 336-336 102.613 79.573zM139.733 917.333l-54.4-54.4 180.053-180.053-137.387-106.88 69.547-53.973 314.453-244.693 89.387 69.547 60.8-60.8-150.613-117.12-314.453 244.693-69.12-53.76 384-298.667 210.987 164.267 161.493-161.493 54.187 54.4-798.933 798.933z" />
<glyph unicode="&#xe661;" d="M896 277.333v85.333l-341.333 213.333v234.667c0 35.413-28.587 64-64 64s-64-28.587-64-64v-234.667l-341.333-213.333v-85.333l341.333 106.667v-234.667l-85.333-64v-64l149.333 42.667 149.333-42.667v64l-85.333 64v234.667l341.333-106.667z" />
<glyph unicode="&#xe662;" d="M469.333 234.667h85.333v42.667h42.667c23.467 0 42.667 19.2 42.667 42.667v128c0 23.467-19.2 42.667-42.667 42.667h-128v42.667h170.667v85.333h-85.333v42.667h-85.333v-42.667h-42.667c-23.467 0-42.667-19.2-42.667-42.667v-128c0-23.467 19.2-42.667 42.667-42.667h128v-42.667h-170.667v-85.333h85.333v-42.667zM853.333 789.333h-682.667c-47.147 0-84.907-38.187-84.907-85.333l-0.427-512c0-47.147 38.187-85.333 85.333-85.333h682.667c47.147 0 85.333 38.187 85.333 85.333v512c0 47.147-38.187 85.333-85.333 85.333zM853.333 192h-682.667v512h682.667v-512z" />
<glyph unicode="&#xe663;" d="M853.333 448c0 47.147 38.187 85.333 85.333 85.333v170.667c0 47.147-38.187 85.333-85.333 85.333h-682.667c-47.147 0-84.907-38.187-84.907-85.333l-0.213-170.667c47.147-0.213 85.12-38.4 85.12-85.333 0-47.147-38.187-85.333-85.12-85.333l-0.213-170.667c0-47.147 38.187-85.333 85.333-85.333h682.667c47.147 0 85.333 38.187 85.333 85.333v170.667c-47.147 0-85.333 38.187-85.333 85.333zM664.747 243.2l-152.747 98.133-152.747-98.133 46.080 175.573-140.373 114.773 181.12 10.667 65.92 168.32 65.92-168.32 181.12-10.667-140.373-114.773 46.080-175.573z" />
<glyph unicode="&#xe664;" d="M469.333 405.333v-256h-213.333v-85.333h512v85.333h-213.333v256l341.333 341.333v85.333h-768v-85.333l341.333-341.333zM320 661.333l-85.333 85.333h554.667l-85.333-85.333h-384z" />
<glyph unicode="&#xe665;" d="M853.333 832h-682.667v-426.667c0-94.293 76.373-170.667 170.667-170.667h256c94.293 0 170.667 76.373 170.667 170.667v128h85.333c47.147 0 85.333 38.187 85.333 85.333v128c0 47.147-38.187 85.333-85.333 85.333zM853.333 618.667h-85.333v128h85.333v-128zM85.333 64h768v85.333h-768v-85.333z" />
<glyph unicode="&#xe666;" d="M725.333 746.667c35.413 0 64 28.587 64 64 0 42.667-64 115.2-64 115.2s-64-72.533-64-115.2c0-35.413 28.587-64 64-64zM512 746.667c35.413 0 64 28.587 64 64 0 42.667-64 115.2-64 115.2s-64-72.533-64-115.2c0-35.413 28.587-64 64-64zM298.667 746.667c35.413 0 64 28.587 64 64 0 42.667-64 115.2-64 115.2s-64-72.533-64-115.2c0-35.413 28.587-64 64-64zM807.253 618.24c-8.747 25.173-32.64 43.093-60.587 43.093h-469.333c-27.947 0-51.84-17.92-60.587-43.093l-88.747-255.573v-341.333c0-23.467 19.2-42.667 42.667-42.667h42.667c23.68 0 42.667 19.2 42.667 42.667v42.667h512v-42.667c0-23.467 19.2-42.667 42.667-42.667h42.667c23.68 0 42.667 19.2 42.667 42.667v341.333l-88.747 255.573zM277.333 192c-35.413 0-64 28.587-64 64s28.587 64 64 64 64-28.587 64-64-28.587-64-64-64zM746.667 192c-35.413 0-64 28.587-64 64s28.587 64 64 64 64-28.587 64-64-28.587-64-64-64zM213.333 405.333l64 192h469.333l64-192h-597.333z" />
<glyph unicode="&#xe667;" d="M810.667 661.333v128h-597.333v-128h-128v-554.667h341.333v170.667h170.667v-170.667h341.333v554.667h-128zM469.333 533.333h-85.333v-42.667h85.333v-42.667h-128v128h85.333v42.667h-85.333v42.667h128v-128zM682.667 448h-42.667v85.333h-85.333v128h42.667v-85.333h42.667v85.333h42.667v-213.333z" />
<glyph unicode="&#xe668;" d="M128 874.667l85.973-778.027c4.907-42.453 40.96-75.307 84.693-75.307h426.667c43.733 0 79.787 32.853 84.693 75.307l85.973 778.027h-768zM512 149.333c-70.613 0-128 57.387-128 128 0 85.333 128 230.4 128 230.4s128-145.067 128-230.4c0-70.613-57.387-128-128-128zM781.867 618.667h-539.733l-18.773 170.667h577.493l-18.987-170.667z" />
<glyph unicode="&#xe669;" d="M512 21.333c212.053 0 384 171.947 384 384-212.053 0-384-171.947-384-384zM239.147 522.667c0-58.88 47.787-106.667 106.667-106.667 22.4 0 43.307 7.040 60.373 18.773l-0.853-8.107c0-58.88 47.787-106.667 106.667-106.667s106.667 47.787 106.667 106.667l-0.853 8.107c17.28-11.947 37.973-18.773 60.373-18.773 58.88 0 106.667 47.787 106.667 106.667 0 42.453-24.96 78.933-61.013 96 35.84 17.067 61.013 53.547 61.013 96 0 58.88-47.787 106.667-106.667 106.667-22.4 0-43.307-7.040-60.373-18.773l0.853 8.107c0 58.88-47.787 106.667-106.667 106.667s-106.667-47.787-106.667-106.667l0.853-8.107c-17.28 11.947-37.973 18.773-60.373 18.773-58.88 0-106.667-47.787-106.667-106.667 0-42.453 24.96-78.933 61.013-96-36.053-17.067-61.013-53.547-61.013-96zM512 725.333c58.88 0 106.667-47.787 106.667-106.667s-47.787-106.667-106.667-106.667-106.667 47.787-106.667 106.667 47.787 106.667 106.667 106.667zM128 405.333c0-212.053 171.947-384 384-384 0 212.053-171.947 384-384 384z" />
<glyph unicode="&#xe66a;" d="M843.52 651.52l0.64 0.64-158.933 158.507-45.227-45.227 90.027-90.027c-40.107-15.36-68.693-53.973-68.693-99.413 0-58.88 47.787-106.667 106.667-106.667 15.147 0 29.653 3.2 42.667 8.96v-307.627c0-23.467-19.2-42.667-42.667-42.667s-42.667 19.2-42.667 42.667v192c0 47.147-38.187 85.333-85.333 85.333h-42.667v298.667c0 47.147-38.187 85.333-85.333 85.333h-256c-47.147 0-85.333-38.187-85.333-85.333v-682.667h426.667v320h64v-213.333c0-58.88 47.787-106.667 106.667-106.667s106.667 47.787 106.667 106.667v405.333c0 29.44-11.947 56.107-31.147 75.52zM512 533.333h-256v213.333h256v-213.333zM768 533.333c-23.467 0-42.667 19.2-42.667 42.667s19.2 42.667 42.667 42.667 42.667-19.2 42.667-42.667-19.2-42.667-42.667-42.667z" />
<glyph unicode="&#xe66b;" d="M298.667 192c-47.147 0-84.907-38.187-84.907-85.333s37.76-85.333 84.907-85.333 85.333 38.187 85.333 85.333-38.187 85.333-85.333 85.333zM42.667 874.667v-85.333h85.333l153.387-323.627-57.6-104.533c-6.613-12.373-10.453-26.24-10.453-41.173 0-47.147 38.187-85.333 85.333-85.333h512v85.333h-493.867c-5.973 0-10.667 4.693-10.667 10.667 0 1.92 0.427 3.627 1.28 5.12l38.187 69.547h317.867c32 0 59.947 17.707 74.667 43.947l152.533 276.907c3.413 5.973 5.333 13.013 5.333 20.48 0 23.68-19.2 42.667-42.667 42.667h-630.827l-40.533 85.333h-139.307zM725.333 192c-47.147 0-84.907-38.187-84.907-85.333s37.76-85.333 84.907-85.333 85.333 38.187 85.333 85.333-38.187 85.333-85.333 85.333z" />
<glyph unicode="&#xe66c;" d="M810.667 832h-597.333c-47.147 0-84.907-38.187-84.907-85.333l-0.427-597.333c0-47.147 38.187-85.333 85.333-85.333h597.333c47.147 0 85.333 38.187 85.333 85.333v597.333c0 47.147-38.187 85.333-85.333 85.333zM768 362.667h-170.667v-170.667h-170.667v170.667h-170.667v170.667h170.667v170.667h170.667v-170.667h170.667v-170.667z" />
<glyph unicode="&#xe66d;" d="M298.667 405.333c70.613 0 128 57.387 128 128s-57.387 128-128 128-128-57.387-128-128 57.387-128 128-128zM810.667 661.333h-341.333v-298.667h-341.333v384h-85.333v-640h85.333v128h768v-128h85.333v384c0 94.293-76.373 170.667-170.667 170.667z" />
<glyph unicode="&#xe66e;" d="M391.253 241.92c66.56-66.56 174.72-66.56 241.28 0s66.56 174.72 0 241.28l-241.28-241.28zM768 874.24l-512 0.427c-47.147 0-85.333-38.187-85.333-85.333v-682.667c0-47.147 38.187-85.333 85.333-85.333h512c47.147 0 85.333 38.187 85.333 85.333v682.667c0 47.147-38.187 84.907-85.333 84.907zM426.667 789.333c23.467 0 42.667-19.2 42.667-42.667s-19.2-42.667-42.667-42.667-42.667 19.2-42.667 42.667 19.2 42.667 42.667 42.667zM298.667 789.333c23.467 0 42.667-19.2 42.667-42.667s-19.2-42.667-42.667-42.667-42.667 19.2-42.667 42.667 19.2 42.667 42.667 42.667zM512 106.667c-141.44 0-256 114.56-256 256s114.56 256 256 256 256-114.56 256-256-114.56-256-256-256z" />
<glyph unicode="&#xe66f;" d="M512 467.413c-100.907 93.653-235.52 151.253-384 151.253v-469.333c148.48 0 283.093-57.6 384-151.253 100.907 93.653 235.52 151.253 384 151.253v469.333c-148.48 0-283.093-57.6-384-151.253zM512 618.667c70.613 0 128 57.387 128 128s-57.387 128-128 128-128-57.387-128-128 57.387-128 128-128z" />
<glyph unicode="&#xe670;" d="M810.667 704h-85.333c0 117.76-95.573 213.333-213.333 213.333s-213.333-95.573-213.333-213.333h-85.333c-47.147 0-84.907-38.187-84.907-85.333l-0.427-512c0-47.147 38.187-85.333 85.333-85.333h597.333c47.147 0 85.333 38.187 85.333 85.333v512c0 47.147-38.187 85.333-85.333 85.333zM512 832c70.613 0 128-57.387 128-128h-256c0 70.613 57.387 128 128 128zM512 405.333c-117.76 0-213.333 95.573-213.333 213.333h85.333c0-70.613 57.387-128 128-128s128 57.387 128 128h85.333c0-117.76-95.573-213.333-213.333-213.333z" />
<glyph unicode="&#xe671;" d="M768 832v-85.333h-85.333v85.333h-341.333v-85.333h-85.333v85.333h-85.333v-768h85.333v85.333h85.333v-85.333h341.333v85.333h85.333v-85.333h85.333v768h-85.333zM341.333 234.667h-85.333v85.333h85.333v-85.333zM341.333 405.333h-85.333v85.333h85.333v-85.333zM341.333 576h-85.333v85.333h85.333v-85.333zM768 234.667h-85.333v85.333h85.333v-85.333zM768 405.333h-85.333v85.333h85.333v-85.333zM768 576h-85.333v85.333h85.333v-85.333z" />
<glyph unicode="&#xe672;" d="M913.493 465.92l-383.787 383.787c-15.573 15.36-36.907 24.96-60.373 24.96h-298.667c-47.147 0-85.333-38.187-85.333-85.333v-298.667c0-23.68 9.6-45.013 25.173-60.373l384-384c15.36-15.36 36.693-24.96 60.16-24.96s45.013 9.6 60.373 24.96l298.667 298.667c15.36 15.573 24.96 36.907 24.96 60.373 0 23.68-9.6 45.013-25.173 60.587zM234.667 661.333c-35.413 0-64 28.587-64 64s28.587 64 64 64 64-28.587 64-64-28.587-64-64-64z" />
<glyph unicode="&#xe673;" d="M554.667 832h-298.667v-768h170.667v256h128c141.44 0 256 114.56 256 256s-114.56 256-256 256zM563.2 490.667h-136.533v170.667h136.533c47.147 0 85.333-38.187 85.333-85.333s-38.187-85.333-85.333-85.333z" />
<glyph unicode="&#xe674;" d="M896 746.667h-112.853l48.853 134.187-100.267 36.48-62.080-170.667h-541.653v-85.333l85.333-256-85.333-256v-85.333h768v85.333l-85.333 256 85.333 256v85.333zM682.667 362.667h-128v-128h-85.333v128h-128v85.333h128v128h85.333v-128h128v-85.333z" />
<glyph unicode="&#xe675;" d="M282.667 499.413c61.44-120.747 160.213-219.52 281.173-280.96l93.867 94.080c11.733 11.733 28.587 15.147 43.307 10.453 47.787-15.787 99.2-24.32 152.32-24.32 23.68 0 42.667-18.987 42.667-42.667v-149.333c0-23.68-18.987-42.667-42.667-42.667-400.64 0-725.333 324.693-725.333 725.333 0 23.68 19.2 42.667 42.667 42.667h149.333c23.68 0 42.667-18.987 42.667-42.667 0-53.12 8.533-104.533 24.32-152.32 4.693-14.72 1.28-31.573-10.453-43.307l-93.867-94.293z" />
<glyph unicode="&#xe676;" d="M512 874.667c-152.107 0-289.067-65.92-383.573-170.667l383.573-682.667 383.787 682.453c-94.507 104.96-231.467 170.88-383.787 170.88zM298.667 661.333c0 47.147 38.187 85.333 85.333 85.333s85.333-38.187 85.333-85.333-38.187-85.333-85.333-85.333-85.333 38.187-85.333 85.333zM512 320c-47.147 0-85.333 38.187-85.333 85.333s38.187 85.333 85.333 85.333 85.333-38.187 85.333-85.333-38.187-85.333-85.333-85.333z" />
<glyph unicode="&#xe677;" d="M853.333 448c0 47.147 38.187 85.333 85.333 85.333v170.667c0 47.147-38.187 85.333-85.333 85.333h-682.667c-47.147 0-84.907-38.187-84.907-85.333l-0.213-170.667c47.147-0.213 85.12-38.4 85.12-85.333 0-47.147-38.187-85.333-85.12-85.333l-0.213-170.667c0-47.147 38.187-85.333 85.333-85.333h682.667c47.147 0 85.333 38.187 85.333 85.333v170.667c-47.147 0-85.333 38.187-85.333 85.333zM664.747 243.2l-152.747 98.133-152.747-98.133 46.080 175.573-140.373 114.773 181.12 10.667 65.92 168.32 65.92-168.32 181.12-10.667-140.373-114.773 46.080-175.573z" />
<glyph unicode="&#xe678;" d="M853.333 789.333h-682.667c-47.147 0-84.907-38.187-84.907-85.333l-0.427-512c0-47.147 38.187-85.333 85.333-85.333h682.667c47.147 0 85.333 38.187 85.333 85.333v512c0 47.147-38.187 85.333-85.333 85.333zM853.333 618.667l-341.333-213.333-341.333 213.333v85.333l341.333-213.333 341.333 213.333v-85.333z" />
<glyph unicode="&#xe679;" d="M810.667 618.667h-597.333c-70.613 0-128-57.387-128-128v-256h170.667v-170.667h512v170.667h170.667v256c0 70.613-57.387 128-128 128zM682.667 149.333h-341.333v213.333h341.333v-213.333zM810.667 448c-23.68 0-42.667 18.987-42.667 42.667s18.987 42.667 42.667 42.667c23.68 0 42.667-18.987 42.667-42.667s-18.987-42.667-42.667-42.667zM768 832h-512v-170.667h512v170.667z" />
<glyph unicode="&#xe67a;" d="M345.6 390.613l120.747 120.747-299.307 299.307c-66.56-66.56-66.56-174.72 0-241.28l178.56-178.773zM635.093 468.053c65.067-30.507 157.013-8.96 224.853 58.88 81.707 81.707 97.28 198.4 34.773 260.907-62.72 62.507-179.627 46.933-261.12-34.773-67.84-67.84-89.173-159.787-58.88-224.853-94.933-94.72-416.64-416.427-416.64-416.427l60.373-60.373 293.547 293.547 293.547-293.547 60.373 60.373-293.547 293.547 62.72 62.72z" />
<glyph unicode="&#xe67b;" d="M648.533 448c0-75.405-61.128-136.533-136.533-136.533s-136.533 61.128-136.533 136.533c0 75.405 61.128 136.533 136.533 136.533s136.533-61.128 136.533-136.533zM384 874.667l-78.080-85.333h-135.253c-47.147 0-85.333-38.187-85.333-85.333v-512c0-47.147 38.187-85.333 85.333-85.333h682.667c47.147 0 85.333 38.187 85.333 85.333v512c0 47.147-38.187 85.333-85.333 85.333h-135.253l-78.080 85.333h-256zM512 234.667c-117.76 0-213.333 95.573-213.333 213.333s95.573 213.333 213.333 213.333 213.333-95.573 213.333-213.333-95.573-213.333-213.333-213.333z" />
<glyph unicode="&#xe67c;" d="M853.333 618.667h-128v170.667h-597.333c-47.147 0-85.333-38.187-85.333-85.333v-469.333h85.333c0-70.613 57.387-128 128-128s128 57.387 128 128h256c0-70.613 57.387-128 128-128s128 57.387 128 128h85.333v213.333l-128 170.667zM256 170.667c-35.413 0-64 28.587-64 64s28.587 64 64 64 64-28.587 64-64-28.587-64-64-64zM832 554.667l83.84-106.667h-190.507v106.667h106.667zM768 170.667c-35.413 0-64 28.587-64 64s28.587 64 64 64 64-28.587 64-64-28.587-64-64-64z" />
<glyph unicode="&#xe67d;" d="M807.253 703.573c-8.747 25.173-32.64 43.093-60.587 43.093h-106.667v85.333h-256v-85.333h-106.667c-27.947 0-51.84-17.92-60.587-43.093l-88.747-255.573v-341.333c0-23.467 19.2-42.667 42.667-42.667h42.667c23.68 0 42.667 19.2 42.667 42.667v42.667h512v-42.667c0-23.467 19.2-42.667 42.667-42.667h42.667c23.68 0 42.667 19.2 42.667 42.667v341.333l-88.747 255.573zM277.333 277.333c-35.413 0-64 28.587-64 64s28.587 64 64 64 64-28.587 64-64-28.587-64-64-64zM746.667 277.333c-35.413 0-64 28.587-64 64s28.587 64 64 64 64-28.587 64-64-28.587-64-64-64zM213.333 490.667l64 192h469.333l64-192h-597.333z" />
<glyph unicode="&#xe67e;" d="M810.667 874.667h-597.333c-47.147 0-85.333-38.187-85.333-85.333v-597.333c0-47.147 38.187-85.333 85.333-85.333h170.667l128-128 128 128h170.667c47.147 0 85.333 38.187 85.333 85.333v597.333c0 47.147-38.187 85.333-85.333 85.333zM512 733.867c63.573 0 115.2-51.627 115.2-115.2s-51.627-115.2-115.2-115.2c-63.573 0-115.2 51.627-115.2 115.2s51.627 115.2 115.2 115.2zM768 277.333h-512v38.4c0 85.333 170.667 132.267 256 132.267s256-46.933 256-132.267v-38.4z" />
<glyph unicode="&#xe67f;" d="M874.667 832c-2.347 0-4.48-0.213-6.613-1.067l-228.053-88.533-256 89.6-240.427-81.067c-8.96-2.987-15.573-10.667-15.573-20.48v-645.12c0-11.733 9.6-21.333 21.333-21.333 2.347 0 4.48 0.213 6.613 1.067l228.053 88.533 256-89.6 240.64 80.853c8.96 3.2 15.36 10.88 15.36 20.693v645.12c0 11.733-9.6 21.333-21.333 21.333zM640 149.333l-256 89.813v507.52l256-89.813v-507.52z" />
<glyph unicode="&#xe680;" d="M512 618.667c-94.293 0-170.667-76.373-170.667-170.667s76.373-170.667 170.667-170.667 170.667 76.373 170.667 170.667-76.373 170.667-170.667 170.667zM893.44 490.667c-19.627 177.92-160.853 319.147-338.773 338.773v87.893h-85.333v-87.893c-177.92-19.627-319.147-160.853-338.773-338.773h-87.893v-85.333h87.893c19.627-177.92 160.853-319.147 338.773-338.773v-87.893h85.333v87.893c177.92 19.627 319.147 160.853 338.773 338.773h87.893v85.333h-87.893zM512 149.333c-164.907 0-298.667 133.76-298.667 298.667s133.76 298.667 298.667 298.667 298.667-133.76 298.667-298.667-133.76-298.667-298.667-298.667z" />
<glyph unicode="&#xe681;" d="M512 874.667l-320-780.587 30.080-30.080 289.92 128 289.92-128 30.080 30.080z" />
<glyph unicode="&#xe682;" d="M768 618.667c0 141.44-114.56 256-256 256s-256-114.56-256-256c0-192 256-469.333 256-469.333s256 277.333 256 469.333zM426.667 618.667c0 47.147 38.187 85.333 85.333 85.333s85.333-38.187 85.333-85.333-38.187-85.333-85.333-85.333-85.333 38.187-85.333 85.333zM213.333 106.667v-85.333h597.333v85.333h-597.333z" />
<glyph unicode="&#xe683;" d="M512 874.667c-164.907 0-298.667-133.76-298.667-298.667 0-224 298.667-554.667 298.667-554.667s298.667 330.667 298.667 554.667c0 164.907-133.76 298.667-298.667 298.667zM512 469.333c-58.88 0-106.667 47.787-106.667 106.667s47.787 106.667 106.667 106.667 106.667-47.787 106.667-106.667-47.787-106.667-106.667-106.667z" />
<glyph unicode="&#xe684;" d="M853.333 874.667h-682.667c-47.147 0-84.907-38.187-84.907-85.333l-0.427-768 170.667 170.667h597.333c47.147 0 85.333 38.187 85.333 85.333v512c0 47.147-38.187 85.333-85.333 85.333zM256 362.667v105.6l293.547 293.547c8.32 8.32 21.76 8.32 30.080 0l75.52-75.52c8.32-8.32 8.32-21.76 0-30.080l-293.547-293.547h-105.6zM768 362.667h-320l85.333 85.333h234.667v-85.333z" />
<glyph unicode="&#xe685;" d="M345.6 390.613l120.747 120.747-299.307 299.307c-66.56-66.56-66.56-174.72 0-241.28l178.56-178.773zM635.093 468.053c65.067-30.507 157.013-8.96 224.853 58.88 81.707 81.707 97.28 198.4 34.773 260.907-62.72 62.507-179.627 46.933-261.12-34.773-67.84-67.84-89.173-159.787-58.88-224.853-94.933-94.72-416.64-416.427-416.64-416.427l60.373-60.373 293.547 293.547 293.547-293.547 60.373 60.373-293.547 293.547 62.72 62.72z" />
<glyph unicode="&#xe686;" d="M810.667 832h-597.333c-47.147 0-85.333-38.187-85.333-85.333v-597.333c0-47.147 38.187-85.333 85.333-85.333h597.333c47.147 0 85.333 38.187 85.333 85.333v597.333c0 47.147-38.187 85.333-85.333 85.333zM213.333 747.093h128c0-70.613-57.387-128.427-128-128.427v128.427zM213.333 448v85.333c117.76 0 213.333 96 213.333 213.76h85.333c0-164.907-133.76-299.093-298.667-299.093zM213.333 192l149.333 192 106.667-128.213 149.333 192.213 192-256h-597.333z" />
<glyph unicode="&#xe687;" d="M853.333 789.333h-682.667v-85.333h682.667v85.333zM896 362.667v85.333l-42.667 213.333h-682.667l-42.667-213.333v-85.333h42.667v-256h426.667v256h170.667v-256h85.333v256h42.667zM512 192h-256v170.667h256v-170.667z" />
<glyph unicode="&#xe688;" d="M597.333 704l-160-213.333 121.6-162.133-68.267-51.2c-72.107 96-192 256-192 256l-256-341.333h938.667l-384 512z" />
<glyph unicode="&#xe689;" d="M853.333 533.333h-128v48.64c73.6 18.987 128 85.12 128 164.693h-128v42.667c0 23.467-18.987 42.667-42.667 42.667h-341.333c-23.467 0-42.667-19.2-42.667-42.667v-42.667h-128c0-79.36 54.613-145.707 128-164.693v-48.64h-128c0-79.36 54.613-145.707 128-164.693v-48.64h-128c0-79.36 54.613-145.707 128-164.693v-48.64c0-23.467 19.2-42.667 42.667-42.667h341.333c23.68 0 42.667 19.2 42.667 42.667v48.64c73.6 18.987 128 85.12 128 164.693h-128v48.64c73.6 18.987 128 85.333 128 164.693zM512 149.333c-47.147 0-85.333 38.187-85.333 85.333s38.187 85.333 85.333 85.333 85.333-38.187 85.333-85.333-38.187-85.333-85.333-85.333zM512 362.667c-47.147 0-85.333 38.187-85.333 85.333s38.187 85.333 85.333 85.333 85.333-38.187 85.333-85.333-38.187-85.333-85.333-85.333zM512 576c-47.147 0-85.333 38.187-85.333 85.333s38.187 85.333 85.333 85.333 85.333-38.187 85.333-85.333-38.187-85.333-85.333-85.333z" />
<glyph unicode="&#xe68a;" d="M170.667 704h-85.333v-597.333c0-47.147 38.187-85.333 85.333-85.333h597.333v85.333h-597.333v597.333zM853.333 874.667h-512c-47.147 0-85.333-38.187-85.333-85.333v-512c0-47.147 38.187-85.333 85.333-85.333h512c47.147 0 85.333 38.187 85.333 85.333v512c0 47.147-38.187 85.333-85.333 85.333zM810.667 490.667h-170.667v-170.667h-85.333v170.667h-170.667v85.333h170.667v170.667h85.333v-170.667h170.667v-85.333z" />
<glyph unicode="&#xe68b;" d="M512 874.667c-235.307 0-426.667-191.36-426.667-426.667s191.36-426.667 426.667-426.667 426.667 191.36 426.667 426.667-191.36 426.667-426.667 426.667zM512 106.667c-188.16 0-341.333 153.173-341.333 341.333s153.173 341.333 341.333 341.333 341.333-153.173 341.333-341.333-153.173-341.333-341.333-341.333zM640 448c0-70.613-57.387-128-128-128s-128 57.387-128 128 57.387 128 128 128 128-57.387 128-128z" />
<glyph unicode="&#xe68c;" d="M614.4 704l-17.067 85.333h-384v-725.333h85.333v298.667h238.933l17.067-85.333h298.667v426.667z" />
<glyph unicode="&#xe68d;" d="M512 832v-395.733c-20.053 7.040-41.387 11.733-64 11.733-106.027 0-192-85.973-192-192s85.973-192 192-192c98.773 0 179.2 74.88 189.867 170.667h2.133v469.333h170.667v128h-298.667z" />
<glyph unicode="&#xe68e;" d="M426.667 576c-23.467 0-42.667-19.2-42.667-42.667s19.2-42.667 42.667-42.667 42.667 19.2 42.667 42.667-19.2 42.667-42.667 42.667zM426.667 405.333c-23.467 0-42.667-19.2-42.667-42.667s19.2-42.667 42.667-42.667 42.667 19.2 42.667 42.667-19.2 42.667-42.667 42.667zM298.667 554.667c-11.733 0-21.333-9.6-21.333-21.333s9.6-21.333 21.333-21.333 21.333 9.6 21.333 21.333-9.6 21.333-21.333 21.333zM426.667 256c-11.733 0-21.333-9.6-21.333-21.333s9.6-21.333 21.333-21.333 21.333 9.6 21.333 21.333-9.6 21.333-21.333 21.333zM298.667 384c-11.733 0-21.333-9.6-21.333-21.333s9.6-21.333 21.333-21.333 21.333 9.6 21.333 21.333-9.6 21.333-21.333 21.333zM426.667 640c11.733 0 21.333 9.6 21.333 21.333s-9.6 21.333-21.333 21.333-21.333-9.6-21.333-21.333 9.6-21.333 21.333-21.333zM597.333 576c-23.467 0-42.667-19.2-42.667-42.667s19.2-42.667 42.667-42.667 42.667 19.2 42.667 42.667-19.2 42.667-42.667 42.667zM597.333 640c11.733 0 21.333 9.6 21.333 21.333s-9.6 21.333-21.333 21.333-21.333-9.6-21.333-21.333 9.6-21.333 21.333-21.333zM725.333 384c-11.733 0-21.333-9.6-21.333-21.333s9.6-21.333 21.333-21.333 21.333 9.6 21.333 21.333-9.6 21.333-21.333 21.333zM725.333 554.667c-11.733 0-21.333-9.6-21.333-21.333s9.6-21.333 21.333-21.333 21.333 9.6 21.333 21.333-9.6 21.333-21.333 21.333zM512 874.667c-235.733 0-426.667-190.933-426.667-426.667s190.933-426.667 426.667-426.667 426.667 190.933 426.667 426.667-190.933 426.667-426.667 426.667zM512 106.667c-188.587 0-341.333 152.747-341.333 341.333s152.747 341.333 341.333 341.333 341.333-152.747 341.333-341.333-152.747-341.333-341.333-341.333zM597.333 256c-11.733 0-21.333-9.6-21.333-21.333s9.6-21.333 21.333-21.333 21.333 9.6 21.333 21.333-9.6 21.333-21.333 21.333zM597.333 405.333c-23.467 0-42.667-19.2-42.667-42.667s19.2-42.667 42.667-42.667 42.667 19.2 42.667 42.667-19.2 42.667-42.667 42.667z" />
<glyph unicode="&#xe68f;" d="M213.333 213.333c35.413 0 64 28.587 64 64s-28.587 64-64 64-64-28.587-64-64 28.587-64 64-64zM384 405.333c23.467 0 42.667 19.2 42.667 42.667s-19.2 42.667-42.667 42.667-42.667-19.2-42.667-42.667 19.2-42.667 42.667-42.667zM384 576c23.467 0 42.667 19.2 42.667 42.667s-19.2 42.667-42.667 42.667-42.667-19.2-42.667-42.667 19.2-42.667 42.667-42.667zM128 64h768v85.333h-768v-85.333zM213.333 554.667c35.413 0 64 28.587 64 64s-28.587 64-64 64-64-28.587-64-64 28.587-64 64-64zM213.333 384c35.413 0 64 28.587 64 64s-28.587 64-64 64-64-28.587-64-64 28.587-64 64-64zM384 234.667c23.467 0 42.667 19.2 42.667 42.667s-19.2 42.667-42.667 42.667-42.667-19.2-42.667-42.667 19.2-42.667 42.667-42.667zM725.333 256c11.733 0 21.333 9.6 21.333 21.333s-9.6 21.333-21.333 21.333-21.333-9.6-21.333-21.333 9.6-21.333 21.333-21.333zM128 832v-85.333h768v85.333h-768zM725.333 597.333c11.733 0 21.333 9.6 21.333 21.333s-9.6 21.333-21.333 21.333-21.333-9.6-21.333-21.333 9.6-21.333 21.333-21.333zM725.333 426.667c11.733 0 21.333 9.6 21.333 21.333s-9.6 21.333-21.333 21.333-21.333-9.6-21.333-21.333 9.6-21.333 21.333-21.333zM554.667 576c23.467 0 42.667 19.2 42.667 42.667s-19.2 42.667-42.667 42.667-42.667-19.2-42.667-42.667 19.2-42.667 42.667-42.667zM554.667 405.333c23.467 0 42.667 19.2 42.667 42.667s-19.2 42.667-42.667 42.667-42.667-19.2-42.667-42.667 19.2-42.667 42.667-42.667zM554.667 234.667c23.467 0 42.667 19.2 42.667 42.667s-19.2 42.667-42.667 42.667-42.667-19.2-42.667-42.667 19.2-42.667 42.667-42.667z" />
<glyph unicode="&#xe690;" d="M597.333 661.333c23.467 0 42.667 19.2 42.667 42.667s-19.2 42.667-42.667 42.667-42.667-19.2-42.667-42.667 19.2-42.667 42.667-42.667zM588.8 470.187c2.773-0.427 5.547-0.853 8.533-0.853 35.413 0 64 28.587 64 64s-28.587 64-64 64-64-28.587-64-64c0-2.987 0.427-5.76 0.853-8.747 3.84-28.16 26.24-50.56 54.613-54.4zM597.333 810.667c11.733 0 21.333 9.6 21.333 21.333s-9.6 21.333-21.333 21.333-21.333-9.6-21.333-21.333 9.6-21.333 21.333-21.333zM426.667 810.667c11.733 0 21.333 9.6 21.333 21.333s-9.6 21.333-21.333 21.333-21.333-9.6-21.333-21.333 9.6-21.333 21.333-21.333zM896 512c11.733 0 21.333 9.6 21.333 21.333s-9.6 21.333-21.333 21.333-21.333-9.6-21.333-21.333 9.6-21.333 21.333-21.333zM426.667 661.333c23.467 0 42.667 19.2 42.667 42.667s-19.2 42.667-42.667 42.667-42.667-19.2-42.667-42.667 19.2-42.667 42.667-42.667zM768 320c23.467 0 42.667 19.2 42.667 42.667s-19.2 42.667-42.667 42.667-42.667-19.2-42.667-42.667 19.2-42.667 42.667-42.667zM768 490.667c23.467 0 42.667 19.2 42.667 42.667s-19.2 42.667-42.667 42.667-42.667-19.2-42.667-42.667 19.2-42.667 42.667-42.667zM768 661.333c23.467 0 42.667 19.2 42.667 42.667s-19.2 42.667-42.667 42.667-42.667-19.2-42.667-42.667 19.2-42.667 42.667-42.667zM597.333 85.333c-11.733 0-21.333-9.6-21.333-21.333s9.6-21.333 21.333-21.333 21.333 9.6 21.333 21.333-9.6 21.333-21.333 21.333zM106.667 734.933l161.493-161.493c-4.053 1.28-7.893 2.56-12.16 2.56-23.467 0-42.667-19.2-42.667-42.667s19.2-42.667 42.667-42.667 42.667 19.2 42.667 42.667c0 4.267-1.28 8.107-2.347 12.16l119.893-119.893c-30.507-5.12-53.547-31.147-53.547-62.933 0-35.413 28.587-64 64-64 31.787 0 57.813 23.040 62.933 53.333l119.893-119.893c-3.84 1.28-7.893 2.56-12.16 2.56-23.467 0-42.667-19.2-42.667-42.667s19.2-42.667 42.667-42.667 42.667 19.2 42.667 42.667c0 4.267-1.28 8.107-2.347 12.16l161.28-161.493 54.4 54.4-692.267 692.267-54.4-54.4zM426.667 234.667c-23.467 0-42.667-19.2-42.667-42.667s19.2-42.667 42.667-42.667 42.667 19.2 42.667 42.667-19.2 42.667-42.667 42.667zM896 384c-11.733 0-21.333-9.6-21.333-21.333s9.6-21.333 21.333-21.333 21.333 9.6 21.333 21.333-9.6 21.333-21.333 21.333zM256 405.333c-23.467 0-42.667-19.2-42.667-42.667s19.2-42.667 42.667-42.667 42.667 19.2 42.667 42.667-19.2 42.667-42.667 42.667zM128 554.667c-11.733 0-21.333-9.6-21.333-21.333s9.6-21.333 21.333-21.333 21.333 9.6 21.333 21.333-9.6 21.333-21.333 21.333zM426.667 85.333c-11.733 0-21.333-9.6-21.333-21.333s9.6-21.333 21.333-21.333 21.333 9.6 21.333 21.333-9.6 21.333-21.333 21.333zM256 234.667c-23.467 0-42.667-19.2-42.667-42.667s19.2-42.667 42.667-42.667 42.667 19.2 42.667 42.667-19.2 42.667-42.667 42.667zM128 384c-11.733 0-21.333-9.6-21.333-21.333s9.6-21.333 21.333-21.333 21.333 9.6 21.333 21.333-9.6 21.333-21.333 21.333z" />
<glyph unicode="&#xe691;" d="M256 405.333c-23.467 0-42.667-19.2-42.667-42.667s19.2-42.667 42.667-42.667 42.667 19.2 42.667 42.667-19.2 42.667-42.667 42.667zM256 234.667c-23.467 0-42.667-19.2-42.667-42.667s19.2-42.667 42.667-42.667 42.667 19.2 42.667 42.667-19.2 42.667-42.667 42.667zM256 576c-23.467 0-42.667-19.2-42.667-42.667s19.2-42.667 42.667-42.667 42.667 19.2 42.667 42.667-19.2 42.667-42.667 42.667zM128 554.667c-11.733 0-21.333-9.6-21.333-21.333s9.6-21.333 21.333-21.333 21.333 9.6 21.333 21.333-9.6 21.333-21.333 21.333zM256 746.667c-23.467 0-42.667-19.2-42.667-42.667s19.2-42.667 42.667-42.667 42.667 19.2 42.667 42.667-19.2 42.667-42.667 42.667zM896 512c11.733 0 21.333 9.6 21.333 21.333s-9.6 21.333-21.333 21.333-21.333-9.6-21.333-21.333 9.6-21.333 21.333-21.333zM597.333 661.333c23.467 0 42.667 19.2 42.667 42.667s-19.2 42.667-42.667 42.667-42.667-19.2-42.667-42.667 19.2-42.667 42.667-42.667zM597.333 810.667c11.733 0 21.333 9.6 21.333 21.333s-9.6 21.333-21.333 21.333-21.333-9.6-21.333-21.333 9.6-21.333 21.333-21.333zM128 384c-11.733 0-21.333-9.6-21.333-21.333s9.6-21.333 21.333-21.333 21.333 9.6 21.333 21.333-9.6 21.333-21.333 21.333zM426.667 85.333c-11.733 0-21.333-9.6-21.333-21.333s9.6-21.333 21.333-21.333 21.333 9.6 21.333 21.333-9.6 21.333-21.333 21.333zM426.667 810.667c11.733 0 21.333 9.6 21.333 21.333s-9.6 21.333-21.333 21.333-21.333-9.6-21.333-21.333 9.6-21.333 21.333-21.333zM426.667 661.333c23.467 0 42.667 19.2 42.667 42.667s-19.2 42.667-42.667 42.667-42.667-19.2-42.667-42.667 19.2-42.667 42.667-42.667zM426.667 426.667c-35.413 0-64-28.587-64-64s28.587-64 64-64 64 28.587 64 64-28.587 64-64 64zM768 405.333c-23.467 0-42.667-19.2-42.667-42.667s19.2-42.667 42.667-42.667 42.667 19.2 42.667 42.667-19.2 42.667-42.667 42.667zM768 234.667c-23.467 0-42.667-19.2-42.667-42.667s19.2-42.667 42.667-42.667 42.667 19.2 42.667 42.667-19.2 42.667-42.667 42.667zM768 576c-23.467 0-42.667-19.2-42.667-42.667s19.2-42.667 42.667-42.667 42.667 19.2 42.667 42.667-19.2 42.667-42.667 42.667zM768 746.667c-23.467 0-42.667-19.2-42.667-42.667s19.2-42.667 42.667-42.667 42.667 19.2 42.667 42.667-19.2 42.667-42.667 42.667zM896 384c-11.733 0-21.333-9.6-21.333-21.333s9.6-21.333 21.333-21.333 21.333 9.6 21.333 21.333-9.6 21.333-21.333 21.333zM597.333 234.667c-23.467 0-42.667-19.2-42.667-42.667s19.2-42.667 42.667-42.667 42.667 19.2 42.667 42.667-19.2 42.667-42.667 42.667zM597.333 85.333c-11.733 0-21.333-9.6-21.333-21.333s9.6-21.333 21.333-21.333 21.333 9.6 21.333 21.333-9.6 21.333-21.333 21.333zM426.667 597.333c-35.413 0-64-28.587-64-64s28.587-64 64-64 64 28.587 64 64-28.587 64-64 64zM426.667 234.667c-23.467 0-42.667-19.2-42.667-42.667s19.2-42.667 42.667-42.667 42.667 19.2 42.667 42.667-19.2 42.667-42.667 42.667zM597.333 426.667c-35.413 0-64-28.587-64-64s28.587-64 64-64 64 28.587 64 64-28.587 64-64 64zM597.333 597.333c-35.413 0-64-28.587-64-64s28.587-64 64-64 64 28.587 64 64-28.587 64-64 64z" />
<glyph unicode="&#xe692;" d="M938.667 448c0-235.641-191.025-426.667-426.667-426.667s-426.667 191.025-426.667 426.667c0 235.641 191.025 426.667 426.667 426.667s426.667-191.025 426.667-426.667z" />
<glyph unicode="&#xe693;" d="M426.667 874.667c-77.867 0-150.613-21.12-213.333-57.6 127.36-73.813 213.333-211.2 213.333-369.067s-85.973-295.253-213.333-369.067c62.72-36.48 135.467-57.6 213.333-57.6 235.733 0 426.667 190.933 426.667 426.667s-190.933 426.667-426.667 426.667z" />
<glyph unicode="&#xe694;" d="M384 874.667c-44.587 0-87.68-6.827-128-19.627 173.013-54.4 298.667-216.107 298.667-407.040s-125.653-352.64-298.667-407.040c40.32-12.587 83.413-19.627 128-19.627 235.733 0 426.667 190.933 426.667 426.667s-190.933 426.667-426.667 426.667z" />
<glyph unicode="&#xe695;" d="M853.333 589.44v199.893h-199.893l-141.44 141.44-141.44-141.44h-199.893v-199.893l-141.44-141.44 141.44-141.44v-199.893h199.893l141.44-141.44 141.44 141.44h199.893v199.893l141.44 141.44-141.44 141.44zM512 192c-38.187 0-74.24 8.533-106.667 23.467 88.107 40.533 149.333 129.28 149.333 232.533s-61.227 192-149.333 232.533c32.427 14.933 68.48 23.467 106.667 23.467 141.44 0 256-114.56 256-256s-114.56-256-256-256z" />
<glyph unicode="&#xe696;" d="M853.333 306.56l141.44 141.44-141.44 141.44v199.893h-199.893l-141.44 141.44-141.44-141.44h-199.893v-199.893l-141.44-141.44 141.44-141.44v-199.893h199.893l141.44-141.44 141.44 141.44h199.893v199.893zM512 192c-141.44 0-256 114.56-256 256s114.56 256 256 256 256-114.56 256-256-114.56-256-256-256z" />
<glyph unicode="&#xe697;" d="M853.333 306.56l141.44 141.44-141.44 141.44v199.893h-199.893l-141.44 141.44-141.44-141.44h-199.893v-199.893l-141.44-141.44 141.44-141.44v-199.893h199.893l141.44-141.44 141.44 141.44h199.893v199.893zM512 192v512c141.44 0 256-114.56 256-256s-114.56-256-256-256z" />
<glyph unicode="&#xe698;" d="M853.333 589.44v199.893h-199.893l-141.44 141.44-141.44-141.44h-199.893v-199.893l-141.44-141.44 141.44-141.44v-199.893h199.893l141.44-141.44 141.44 141.44h199.893v199.893l141.44 141.44-141.44 141.44zM512 192c-141.44 0-256 114.56-256 256s114.56 256 256 256 256-114.56 256-256-114.56-256-256-256zM512 618.667c-94.293 0-170.667-76.373-170.667-170.667s76.373-170.667 170.667-170.667 170.667 76.373 170.667 170.667-76.373 170.667-170.667 170.667z" />
<glyph unicode="&#xe699;" d="M298.667 362.667c-70.613 0-128-57.387-128-128 0-55.893-49.28-85.333-85.333-85.333 39.253-52.053 106.453-85.333 170.667-85.333 94.293 0 170.667 76.373 170.667 170.667 0 70.613-57.387 128-128 128zM883.413 762.453l-56.96 56.96c-16.64 16.64-43.733 16.64-60.373 0l-382.080-382.080 117.333-117.333 382.080 382.080c16.853 16.853 16.853 43.733 0 60.373z" />
<glyph unicode="&#xe69a;" d="M401.067 512l203.307 352.213c-29.653 6.613-60.587 10.453-92.373 10.453-102.4 0-196.053-36.053-269.653-96.213l156.373-270.72 2.347 4.267zM919.040 576c-39.253 124.8-134.4 224.427-255.787 270.507l-156.16-270.507h411.947zM930.133 533.333h-319.573l12.373-21.333 203.307-352c69.547 75.947 112.427 176.853 112.427 288 0 29.227-2.987 57.813-8.533 85.333zM364.16 448l-166.4 288c-69.547-75.947-112.427-176.853-112.427-288 0-29.227 2.987-57.813 8.533-85.333h319.573l-49.28 85.333zM104.96 320c39.253-124.8 134.4-224.427 255.787-270.507l156.16 270.507h-411.947zM585.813 320l-166.4-288.213c29.867-6.613 60.8-10.453 92.587-10.453 102.4 0 196.053 36.053 269.653 96.213l-156.373 270.72-39.467-68.267z" />
<glyph unicode="&#xe69b;" d="M648.533 448c0-75.405-61.128-136.533-136.533-136.533s-136.533 61.128-136.533 136.533c0 75.405 61.128 136.533 136.533 136.533s136.533-61.128 136.533-136.533zM384 874.667l-78.080-85.333h-135.253c-47.147 0-85.333-38.187-85.333-85.333v-512c0-47.147 38.187-85.333 85.333-85.333h682.667c47.147 0 85.333 38.187 85.333 85.333v512c0 47.147-38.187 85.333-85.333 85.333h-135.253l-78.080 85.333h-256zM512 234.667c-117.76 0-213.333 95.573-213.333 213.333s95.573 213.333 213.333 213.333 213.333-95.573 213.333-213.333-95.573-213.333-213.333-213.333z" />
<glyph unicode="&#xe69c;" d="M426.667 106.667h-213.333v-85.333h213.333v-85.333l128 128-128 128v-85.333zM597.333 106.667v-85.333h213.333v85.333h-213.333zM512 618.667c47.147 0 85.333 38.187 85.333 85.333s-38.187 85.333-85.333 85.333-85.12-38.187-85.12-85.333c0.213-47.147 37.973-85.333 85.12-85.333zM725.333 960h-426.667c-47.147 0-85.333-38.187-85.333-85.333v-597.333c0-47.147 38.187-85.333 85.333-85.333h426.667c47.147 0 85.333 38.187 85.333 85.333v597.333c0 47.147-38.187 85.333-85.333 85.333zM298.667 874.667h426.667v-448c0 71.040-142.293 106.667-213.333 106.667s-213.333-35.627-213.333-106.667v448z" />
<glyph unicode="&#xe69d;" d="M426.667 106.667h-213.333v-85.333h213.333v-85.333l128 128-128 128v-85.333zM597.333 106.667v-85.333h213.333v85.333h-213.333zM725.333 960h-426.667c-47.147 0-85.333-38.187-85.333-85.333v-597.333c0-47.147 38.187-85.333 85.333-85.333h426.667c47.147 0 85.333 38.187 85.333 85.333v597.333c0 47.147-38.187 85.333-85.333 85.333zM511.787 704c-47.147 0-85.12 38.187-85.12 85.333s37.973 85.333 85.12 85.333 85.333-38.187 85.333-85.333-38.187-85.333-85.333-85.333z" />
<glyph unicode="&#xe69e;" d="M597.333 746.667c0 47.147-38.187 85.333-85.333 85.333h-42.667v42.667c0 23.467-19.2 42.667-42.667 42.667h-170.667c-23.467 0-42.667-19.2-42.667-42.667v-42.667h-42.667c-47.147 0-85.333-38.187-85.333-85.333v-640c0-47.147 38.187-85.333 85.333-85.333h341.333c47.147 0 85.333 38.187 85.333 85.333h341.333v640h-341.333zM512 192h-85.333v85.333h85.333v-85.333zM512 576h-85.333v85.333h85.333v-85.333zM682.667 192h-85.333v85.333h85.333v-85.333zM682.667 576h-85.333v85.333h85.333v-85.333zM853.333 192h-85.333v85.333h85.333v-85.333zM853.333 576h-85.333v85.333h85.333v-85.333z" />
<glyph unicode="&#xe69f;" d="M512 618.667c-94.293 0-170.667-76.373-170.667-170.667s76.373-170.667 170.667-170.667 170.667 76.373 170.667 170.667-76.373 170.667-170.667 170.667zM213.333 320h-85.333v-170.667c0-47.147 38.187-85.333 85.333-85.333h170.667v85.333h-170.667v170.667zM213.333 746.667h170.667v85.333h-170.667c-47.147 0-85.333-38.187-85.333-85.333v-170.667h85.333v170.667zM810.667 832h-170.667v-85.333h170.667v-170.667h85.333v170.667c0 47.147-38.187 85.333-85.333 85.333zM810.667 149.333h-170.667v-85.333h170.667c47.147 0 85.333 38.187 85.333 85.333v170.667h-85.333v-170.667z" />
<glyph unicode="&#xe6a0;" d="M213.333 320h-85.333v-170.667c0-47.147 38.187-85.333 85.333-85.333h170.667v85.333h-170.667v170.667zM213.333 746.667h170.667v85.333h-170.667c-47.147 0-85.333-38.187-85.333-85.333v-170.667h85.333v170.667zM810.667 832h-170.667v-85.333h170.667v-170.667h85.333v170.667c0 47.147-38.187 85.333-85.333 85.333zM810.667 149.333h-170.667v-85.333h170.667c47.147 0 85.333 38.187 85.333 85.333v170.667h-85.333v-170.667zM512 618.667c-94.293 0-170.667-76.373-170.667-170.667s76.373-170.667 170.667-170.667 170.667 76.373 170.667 170.667-76.373 170.667-170.667 170.667zM512 362.667c-47.147 0-85.333 38.187-85.333 85.333s38.187 85.333 85.333 85.333 85.333-38.187 85.333-85.333-38.187-85.333-85.333-85.333z" />
<glyph unicode="&#xe6a1;" d="M938.667 277.333v512c0 47.147-38.187 85.333-85.333 85.333h-512c-47.147 0-85.333-38.187-85.333-85.333v-512c0-47.147 38.187-85.333 85.333-85.333h512c47.147 0 85.333 38.187 85.333 85.333zM469.333 448l86.613-115.627 126.72 158.293 170.667-213.333h-512l128 170.667zM85.333 704v-597.333c0-47.147 38.187-85.333 85.333-85.333h597.333v85.333h-597.333v597.333h-85.333z" />
<glyph unicode="&#xe6a2;" d="M512 832c-212.053 0-384-171.947-384-384s171.947-384 384-384c35.413 0 64 28.587 64 64 0 16.64-6.187 31.573-16.64 42.88-10.027 11.307-16 26.027-16 42.453 0 35.413 28.587 64 64 64h75.307c117.76 0 213.333 95.573 213.333 213.333 0 188.587-171.947 341.333-384 341.333zM277.333 448c-35.413 0-64 28.587-64 64s28.587 64 64 64 64-28.587 64-64-28.587-64-64-64zM405.333 618.667c-35.413 0-64 28.587-64 64s28.587 64 64 64 64-28.587 64-64-28.587-64-64-64zM618.667 618.667c-35.413 0-64 28.587-64 64s28.587 64 64 64 64-28.587 64-64-28.587-64-64-64zM746.667 448c-35.413 0-64 28.587-64 64s28.587 64 64 64 64-28.587 64-64-28.587-64-64-64z" />
<glyph unicode="&#xe6a3;" d="M883.413 719.787l-99.627 99.627c-16.64 16.64-43.733 16.64-60.373 0l-133.333-133.333-81.707 81.92-60.373-60.373 60.587-60.587-380.587-380.373v-202.667h202.667l380.587 380.587 60.373-60.587 60.373 60.373-81.92 81.92 133.333 133.333c16.853 16.64 16.853 43.52 0 60.16zM295.253 149.333l-81.92 81.92 344.107 344.107 81.92-81.92-344.107-344.107z" />
<glyph unicode="&#xe6a4;" d="M426.667 832h-213.333c-47.147 0-85.333-38.187-85.333-85.333v-597.333c0-47.147 38.187-85.333 85.333-85.333h213.333v-85.333h85.333v938.667h-85.333v-85.333zM426.667 192h-213.333l213.333 256v-256zM810.667 832h-213.333v-85.333h213.333v-554.667l-213.333 256v-384h213.333c47.147 0 85.333 38.187 85.333 85.333v597.333c0 47.147-38.187 85.333-85.333 85.333z" />
<glyph unicode="&#xe6a5;" d="M554.667 661.333h-85.333v-170.667h-170.667v-85.333h170.667v-170.667h85.333v170.667h170.667v85.333h-170.667v170.667zM512 874.667c-235.307 0-426.667-191.36-426.667-426.667s191.36-426.667 426.667-426.667 426.667 191.36 426.667 426.667-191.36 426.667-426.667 426.667zM512 106.667c-188.16 0-341.333 153.173-341.333 341.333s153.173 341.333 341.333 341.333 341.333-153.173 341.333-341.333-153.173-341.333-341.333-341.333z" />
<glyph unicode="&#xe6a6;" d="M682.667 618.667h-85.333v-128h-128v-85.333h128v-128h85.333v128h128v85.333h-128zM85.333 448c0 119.040 70.187 221.653 171.093 269.653v91.947c-149.12-52.48-256.427-194.56-256.427-361.6s107.307-309.12 256.427-361.6v91.947c-100.907 48-171.093 150.613-171.093 269.653zM640 832c-211.84 0-384-172.16-384-384s172.16-384 384-384 384 172.16 384 384-172.16 384-384 384zM640 149.333c-164.693 0-298.667 133.973-298.667 298.667s133.973 298.667 298.667 298.667 298.667-133.973 298.667-298.667-133.973-298.667-298.667-298.667z" />
<glyph unicode="&#xe6a7;" d="M810.667 789.333h-597.333c-47.147 0-85.333-38.187-85.333-85.333v-512c0-47.147 38.187-85.333 85.333-85.333h597.333c47.147 0 85.333 38.187 85.333 85.333v512c0 47.147-38.187 85.333-85.333 85.333zM810.667 192h-597.333v512h597.333v-512z" />
<glyph unicode="&#xe6a8;" d="M810.667 746.667h-597.333c-47.147 0-85.333-38.187-85.333-85.333v-426.667c0-47.147 38.187-85.333 85.333-85.333h597.333c47.147 0 85.333 38.187 85.333 85.333v426.667c0 47.147-38.187 85.333-85.333 85.333zM810.667 234.667h-597.333v426.667h597.333v-426.667z" />
<glyph unicode="&#xe6a9;" d="M810.667 661.333h-597.333c-47.147 0-85.333-38.187-85.333-85.333v-256c0-47.147 38.187-85.333 85.333-85.333h597.333c47.147 0 85.333 38.187 85.333 85.333v256c0 47.147-38.187 85.333-85.333 85.333zM810.667 320h-597.333v256h597.333v-256z" />
<glyph unicode="&#xe6aa;" d="M810.667 704h-597.333c-47.147 0-85.333-38.187-85.333-85.333v-341.333c0-47.147 38.187-85.333 85.333-85.333h597.333c47.147 0 85.333 38.187 85.333 85.333v341.333c0 47.147-38.187 85.333-85.333 85.333zM810.667 277.333h-597.333v341.333h597.333v-341.333z" />
<glyph unicode="&#xe6ab;" d="M725.333 320h85.333v341.333c0 47.147-38.187 85.333-85.333 85.333h-341.333v-85.333h341.333v-341.333zM298.667 234.667v682.667h-85.333v-170.667h-170.667v-85.333h170.667v-426.667c0-47.147 38.187-85.333 85.333-85.333h426.667v-170.667h85.333v170.667h170.667v85.333h-682.667z" />
<glyph unicode="&#xe6ac;" d="M810.667 832h-597.333c-47.147 0-85.333-38.187-85.333-85.333v-597.333c0-47.147 38.187-85.333 85.333-85.333h597.333c47.147 0 85.333 38.187 85.333 85.333v597.333c0 47.147-38.187 85.333-85.333 85.333zM810.667 149.333h-597.333v597.333h597.333v-597.333z" />
<glyph unicode="&#xe6ad;" d="M128 746.667v-170.667h85.333v170.667h170.667v85.333h-170.667c-47.147 0-85.333-38.187-85.333-85.333zM213.333 320h-85.333v-170.667c0-47.147 38.187-85.333 85.333-85.333h170.667v85.333h-170.667v170.667zM810.667 149.333h-170.667v-85.333h170.667c47.147 0 85.333 38.187 85.333 85.333v170.667h-85.333v-170.667zM810.667 832h-170.667v-85.333h170.667v-170.667h85.333v170.667c0 47.147-38.187 85.333-85.333 85.333z" />
<glyph unicode="&#xe6ae;" d="M810.667 746.667h-597.333c-47.147 0-85.333-38.187-85.333-85.333v-426.667c0-47.147 38.187-85.333 85.333-85.333h597.333c47.147 0 85.333 38.187 85.333 85.333v426.667c0 47.147-38.187 85.333-85.333 85.333zM810.667 234.667h-597.333v426.667h597.333v-426.667z" />
<glyph unicode="&#xe6af;" d="M810.667 832h-597.333c-47.147 0-85.333-38.187-85.333-85.333v-597.333c0-47.147 38.187-85.333 85.333-85.333h597.333c47.147 0 85.333 38.187 85.333 85.333v597.333c0 47.147-38.187 85.333-85.333 85.333zM810.667 149.333h-597.333v597.333h597.333v-597.333zM595.84 435.84l-117.333-151.040-83.84 100.693-117.333-150.827h469.333l-150.827 201.173z" />
<glyph unicode="&#xe6b0;" d="M725.333 832h-426.667c-47.147 0-85.333-38.187-85.333-85.333v-597.333c0-47.147 38.187-85.333 85.333-85.333h426.667c47.147 0 85.333 38.187 85.333 85.333v597.333c0 47.147-38.187 85.333-85.333 85.333zM725.333 149.333h-426.667v597.333h426.667v-597.333z" />
<glyph unicode="&#xe6b1;" d="M768 789.333h-512c-47.147 0-85.333-38.187-85.333-85.333v-512c0-47.147 38.187-85.333 85.333-85.333h512c47.147 0 85.333 38.187 85.333 85.333v512c0 47.147-38.187 85.333-85.333 85.333zM768 192h-512v512h512v-512z" />
<glyph unicode="&#xe6b2;" d="M85.333 298.667v-85.333h853.333v85.333h-853.333zM85.333 512v-85.333h853.333v85.333h-853.333zM85.333 725.333v-85.333h853.333v85.333h-853.333z" />
<glyph unicode="&#xe6b3;" d="M128 789.333l384-682.667 384 682.667h-768zM272 704h480l-240-426.667-240 426.667z" />
<glyph unicode="&#xe6b4;" d="M128 224v-160h160l472.107 472.107-160 160-472.107-472.107zM883.413 659.413c16.64 16.64 16.64 43.733 0 60.373l-99.627 99.627c-16.64 16.64-43.733 16.64-60.373 0l-78.080-78.080 160-160 78.080 78.080z" />
<glyph unicode="&#xe6b5;" d="M640 234.667v-85.333h85.333v85.333h85.333v85.333h-85.333v85.333h-85.333v-85.333h-85.333v-85.333h85.333zM853.333 874.667h-682.667c-47.147 0-85.333-38.187-85.333-85.333v-682.667c0-47.147 38.187-85.333 85.333-85.333h682.667c47.147 0 85.333 38.187 85.333 85.333v682.667c0 47.147-38.187 85.333-85.333 85.333zM213.333 746.667h256v-85.333h-256v85.333zM853.333 106.667h-682.667l682.667 682.667v-682.667z" />
<glyph unicode="&#xe6b6;" d="M170.667 490.667v-85.333h341.333v85.333h-341.333zM810.667 192h-85.333v453.333l-128-43.733v72.533l200.533 72.533h12.8v-554.667z" />
<glyph unicode="&#xe6b7;" d="M641.92 264.96l122.24 130.773c16 16.853 30.72 33.493 44.373 50.133 13.44 16.64 25.173 33.28 34.987 49.707 9.813 16.64 17.493 33.067 22.827 49.707 5.547 16.64 8.32 33.493 8.32 50.56 0 22.827-3.84 43.52-11.52 62.293-7.68 18.56-18.773 34.56-33.493 47.573s-32.64 23.040-53.973 30.293c-21.333 7.040-45.653 10.667-72.96 10.667-29.44 0-55.893-4.48-78.933-13.653s-42.453-21.547-58.24-37.333-27.733-34.347-35.84-55.467c-7.68-20.053-11.52-41.6-11.947-64.213h91.307c0.213 13.227 1.92 25.813 5.547 37.12 3.84 12.373 9.6 23.040 17.28 32s17.28 15.787 28.8 20.907c11.733 4.907 25.387 7.467 41.173 7.467 13.013 0 24.533-2.133 34.56-6.613s18.56-10.453 25.387-18.133c6.827-7.68 12.16-17.067 15.787-27.52 3.627-10.667 5.333-22.187 5.333-34.773 0-9.173-1.28-18.56-3.627-27.733s-6.4-19.2-12.373-29.867c-5.973-10.667-13.867-22.4-23.68-35.413-9.813-12.8-22.4-27.52-37.333-44.16l-178.133-194.347v-62.933h368.213v72.96h-254.080zM85.333 490.667v-85.333h341.333v85.333h-341.333z" />
<glyph unicode="&#xe6b8;" d="M426.667 661.333h-85.333v-170.667h-170.667v-85.333h170.667v-170.667h85.333v170.667h170.667v85.333h-170.667v170.667zM853.333 192h-85.333v453.333l-128-43.733v72.533l200.533 72.533h12.8v-554.667z" />
<glyph unicode="&#xe6b9;" d="M684.587 264.96l122.24 130.773c16 16.853 30.72 33.493 44.373 50.133 13.44 16.64 25.173 33.28 34.987 49.707 9.813 16.64 17.493 33.067 22.827 49.707 5.547 16.64 8.32 33.493 8.32 50.56 0 22.827-3.84 43.52-11.52 62.293-7.68 18.56-18.773 34.56-33.493 47.573s-32.64 23.040-53.973 30.293c-21.333 7.040-45.653 10.667-72.96 10.667-29.44 0-55.893-4.48-78.933-13.653s-42.453-21.547-58.24-37.333-27.733-34.347-35.84-55.467c-7.68-20.053-11.52-41.6-11.947-64.213h91.307c0.213 13.227 1.92 25.813 5.547 37.12 3.84 12.373 9.6 23.040 17.28 32s17.28 15.787 28.8 20.907c11.733 4.907 25.387 7.467 41.173 7.467 13.013 0 24.533-2.133 34.56-6.613s18.56-10.453 25.387-18.133c6.827-7.68 12.16-17.067 15.787-27.52 3.627-10.667 5.333-22.187 5.333-34.773 0-9.173-1.28-18.56-3.627-27.733s-6.4-19.2-12.373-29.867c-5.973-10.667-13.867-22.4-23.68-35.413-9.813-12.8-22.4-27.52-37.333-44.16l-178.133-194.347v-62.933h368.213v72.96h-254.080zM341.333 661.333h-85.333v-170.667h-170.667v-85.333h170.667v-170.667h85.333v170.667h170.667v85.333h-170.667v170.667z" />
<glyph unicode="&#xe6ba;" d="M688.64 426.667c0-42.667-4.267-78.933-12.587-108.8s-20.267-53.973-35.627-72.747c-15.36-18.56-33.92-32.213-55.467-40.533s-45.653-12.587-72.32-12.587c-26.453 0-50.56 4.267-72.32 12.587s-40.32 21.973-55.893 40.533c-15.573 18.56-27.733 42.88-36.053 72.747-8.533 29.867-12.8 66.133-12.8 108.8v87.040c0 42.667 4.267 78.933 12.587 108.587s20.267 53.76 35.84 72.107c15.36 18.347 33.92 31.787 55.68 39.893s45.867 12.16 72.32 12.16c26.667 0 50.987-4.053 72.747-12.16s40.32-21.547 55.893-39.893c15.36-18.347 27.307-42.453 35.84-72.107 8.32-29.653 12.587-65.92 12.587-108.587v-87.040zM598.613 527.573c0 27.52-1.92 50.56-5.76 69.12s-9.387 33.707-16.853 45.227c-7.467 11.52-16.427 19.84-27.307 24.747-10.667 5.12-23.040 7.68-36.907 7.68s-26.24-2.56-36.907-7.68c-10.88-5.12-19.84-13.44-27.307-24.747-7.467-11.52-13.013-26.667-16.853-45.227s-5.76-41.813-5.76-69.12v-113.92c0-27.093 1.92-50.347 5.973-69.333s9.6-34.56 17.067-46.293c7.467-11.947 16.64-20.48 27.52-26.027 10.88-5.333 23.253-8.107 37.12-8.107 14.080 0 26.453 2.773 37.12 8.107s19.627 14.080 26.88 26.027c7.253 11.947 12.8 27.307 16.427 46.293s5.547 42.24 5.547 69.333v113.92z" />
<glyph unicode="&#xe6bb;" d="M128 746.667h-85.333v-682.667c0-47.147 38.187-85.333 85.333-85.333h682.667v85.333h-682.667v682.667zM597.333 320h85.333v426.667h-170.667v-85.333h85.333v-341.333zM896 917.333h-597.333c-47.147 0-85.333-38.187-85.333-85.333v-597.333c0-47.147 38.187-85.333 85.333-85.333h597.333c47.147 0 85.333 38.187 85.333 85.333v597.333c0 47.147-38.187 85.333-85.333 85.333zM896 234.667h-597.333v597.333h597.333v-597.333z" />
<glyph unicode="&#xe6bc;" d="M128 746.667h-85.333v-682.667c0-47.147 38.187-85.333 85.333-85.333h682.667v85.333h-682.667v682.667zM896 917.333h-597.333c-47.147 0-85.333-38.187-85.333-85.333v-597.333c0-47.147 38.187-85.333 85.333-85.333h597.333c47.147 0 85.333 38.187 85.333 85.333v597.333c0 47.147-38.187 85.333-85.333 85.333zM896 234.667h-597.333v597.333h597.333v-597.333zM725.333 405.333h-170.667v85.333h85.333c47.147 0 85.333 38.187 85.333 85.333v85.333c0 47.147-38.187 85.333-85.333 85.333h-170.667v-85.333h170.667v-85.333h-85.333c-47.147 0-85.333-38.187-85.333-85.333v-170.667h256v85.333z" />
<glyph unicode="&#xe6bd;" d="M896 917.333h-597.333c-47.147 0-85.333-38.187-85.333-85.333v-597.333c0-47.147 38.187-85.333 85.333-85.333h597.333c47.147 0 85.333 38.187 85.333 85.333v597.333c0 47.147-38.187 85.333-85.333 85.333zM896 234.667h-597.333v597.333h597.333v-597.333zM128 746.667h-85.333v-682.667c0-47.147 38.187-85.333 85.333-85.333h682.667v85.333h-682.667v682.667zM725.333 405.333v64c0 35.413-28.587 64-64 64 35.413 0 64 28.587 64 64v64c0 47.147-38.187 85.333-85.333 85.333h-170.667v-85.333h170.667v-85.333h-85.333v-85.333h85.333v-85.333h-170.667v-85.333h170.667c47.147 0 85.333 38.187 85.333 85.333z" />
<glyph unicode="&#xe6be;" d="M128 746.667h-85.333v-682.667c0-47.147 38.187-85.333 85.333-85.333h682.667v85.333h-682.667v682.667zM640 320h85.333v426.667h-85.333v-170.667h-85.333v170.667h-85.333v-256h170.667v-170.667zM896 917.333h-597.333c-47.147 0-85.333-38.187-85.333-85.333v-597.333c0-47.147 38.187-85.333 85.333-85.333h597.333c47.147 0 85.333 38.187 85.333 85.333v597.333c0 47.147-38.187 85.333-85.333 85.333zM896 234.667h-597.333v597.333h597.333v-597.333z" />
<glyph unicode="&#xe6bf;" d="M896 917.333h-597.333c-47.147 0-85.333-38.187-85.333-85.333v-597.333c0-47.147 38.187-85.333 85.333-85.333h597.333c47.147 0 85.333 38.187 85.333 85.333v597.333c0 47.147-38.187 85.333-85.333 85.333zM896 234.667h-597.333v597.333h597.333v-597.333zM128 746.667h-85.333v-682.667c0-47.147 38.187-85.333 85.333-85.333h682.667v85.333h-682.667v682.667zM725.333 405.333v85.333c0 47.147-38.187 85.333-85.333 85.333h-85.333v85.333h170.667v85.333h-256v-256h170.667v-85.333h-170.667v-85.333h170.667c47.147 0 85.333 38.187 85.333 85.333z" />
<glyph unicode="&#xe6c0;" d="M128 746.667h-85.333v-682.667c0-47.147 38.187-85.333 85.333-85.333h682.667v85.333h-682.667v682.667zM896 917.333h-597.333c-47.147 0-85.333-38.187-85.333-85.333v-597.333c0-47.147 38.187-85.333 85.333-85.333h597.333c47.147 0 85.333 38.187 85.333 85.333v597.333c0 47.147-38.187 85.333-85.333 85.333zM896 234.667h-597.333v597.333h597.333v-597.333zM554.667 320h85.333c47.147 0 85.333 38.187 85.333 85.333v85.333c0 47.147-38.187 85.333-85.333 85.333h-85.333v85.333h170.667v85.333h-170.667c-47.147 0-85.333-38.187-85.333-85.333v-256c0-47.147 38.187-85.333 85.333-85.333zM554.667 490.667h85.333v-85.333h-85.333v85.333z" />
<glyph unicode="&#xe6c1;" d="M128 746.667h-85.333v-682.667c0-47.147 38.187-85.333 85.333-85.333h682.667v85.333h-682.667v682.667zM896 917.333h-597.333c-47.147 0-85.333-38.187-85.333-85.333v-597.333c0-47.147 38.187-85.333 85.333-85.333h597.333c47.147 0 85.333 38.187 85.333 85.333v597.333c0 47.147-38.187 85.333-85.333 85.333zM896 234.667h-597.333v597.333h597.333v-597.333zM554.667 320l170.667 341.333v85.333h-256v-85.333h170.667l-170.667-341.333h85.333z" />
<glyph unicode="&#xe6c2;" d="M128 746.667h-85.333v-682.667c0-47.147 38.187-85.333 85.333-85.333h682.667v85.333h-682.667v682.667zM896 917.333h-597.333c-47.147 0-85.333-38.187-85.333-85.333v-597.333c0-47.147 38.187-85.333 85.333-85.333h597.333c47.147 0 85.333 38.187 85.333 85.333v597.333c0 47.147-38.187 85.333-85.333 85.333zM896 234.667h-597.333v597.333h597.333v-597.333zM554.667 320h85.333c47.147 0 85.333 38.187 85.333 85.333v64c0 35.413-28.587 64-64 64 35.413 0 64 28.587 64 64v64c0 47.147-38.187 85.333-85.333 85.333h-85.333c-47.147 0-85.333-38.187-85.333-85.333v-64c0-35.413 28.587-64 64-64-35.413 0-64-28.587-64-64v-64c0-47.147 38.187-85.333 85.333-85.333zM554.667 661.333h85.333v-85.333h-85.333v85.333zM554.667 490.667h85.333v-85.333h-85.333v85.333z" />
<glyph unicode="&#xe6c3;" d="M128 746.667h-85.333v-682.667c0-47.147 38.187-85.333 85.333-85.333h682.667v85.333h-682.667v682.667zM896 917.333h-597.333c-47.147 0-85.333-38.187-85.333-85.333v-597.333c0-47.147 38.187-85.333 85.333-85.333h597.333c47.147 0 85.333 38.187 85.333 85.333v597.333c0 47.147-38.187 85.333-85.333 85.333zM896 234.667h-597.333v597.333h597.333v-597.333zM640 746.667h-85.333c-47.147 0-85.333-38.187-85.333-85.333v-85.333c0-47.147 38.187-85.333 85.333-85.333h85.333v-85.333h-170.667v-85.333h170.667c47.147 0 85.333 38.187 85.333 85.333v256c0 47.147-38.187 85.333-85.333 85.333zM640 576h-85.333v85.333h85.333v-85.333z" />
<glyph unicode="&#xe6c4;" d="M128 746.667h-85.333v-682.667c0-47.147 38.187-85.333 85.333-85.333h682.667v85.333h-682.667v682.667zM597.333 448v170.667c0 47.147-38.187 85.333-85.333 85.333h-42.667c-47.147 0-85.333-38.187-85.333-85.333v-42.667c0-47.147 38.187-85.333 85.333-85.333h42.667v-42.667h-128v-85.333h128c47.147 0 85.333 38.187 85.333 85.333zM469.333 576v42.667h42.667v-42.667h-42.667zM896 917.333h-597.333c-47.147 0-85.333-38.187-85.333-85.333v-597.333c0-47.147 38.187-85.333 85.333-85.333h597.333c47.147 0 85.333 38.187 85.333 85.333v597.333c0 47.147-38.187 85.333-85.333 85.333zM896 576h-85.333v85.333h-85.333v-85.333h-85.333v-85.333h85.333v-85.333h85.333v85.333h85.333v-256h-597.333v597.333h597.333v-256z" />
<glyph unicode="&#xe6c5;" d="M681.173 521.173l-117.333-151.040-83.84 100.693-117.333-150.827h469.333l-150.827 201.173zM128 746.667h-85.333v-682.667c0-47.147 38.187-85.333 85.333-85.333h682.667v85.333h-682.667v682.667zM896 917.333h-597.333c-47.147 0-85.333-38.187-85.333-85.333v-597.333c0-47.147 38.187-85.333 85.333-85.333h597.333c47.147 0 85.333 38.187 85.333 85.333v597.333c0 47.147-38.187 85.333-85.333 85.333zM896 234.667h-597.333v597.333h597.333v-597.333z" />
<glyph unicode="&#xe6c6;" d="M810.667 832h-597.333c-47.147 0-85.333-38.187-85.333-85.333v-597.333c0-47.147 38.187-85.333 85.333-85.333h597.333c47.147 0 85.333 38.187 85.333 85.333v597.333c0 47.147-38.187 85.333-85.333 85.333zM810.667 149.333l-298.667 341.333v-341.333h-298.667l298.667 341.333v256h298.667v-597.333z" />
<glyph unicode="&#xe6c7;" d="M213.333 320h-85.333v-170.667c0-47.147 38.187-85.333 85.333-85.333h170.667v85.333h-170.667v170.667zM213.333 746.667h170.667v85.333h-170.667c-47.147 0-85.333-38.187-85.333-85.333v-170.667h85.333v170.667zM810.667 832h-170.667v-85.333h170.667v-170.667h85.333v170.667c0 47.147-38.187 85.333-85.333 85.333zM810.667 149.333h-170.667v-85.333h170.667c47.147 0 85.333 38.187 85.333 85.333v170.667h-85.333v-170.667zM512 576c-70.613 0-128-57.387-128-128s57.387-128 128-128 128 57.387 128 128-57.387 128-128 128z" />
<glyph unicode="&#xe6c8;" d="M825.813 531.84c-29.013 146.773-158.507 257.493-313.813 257.493-123.307 0-229.973-69.973-283.52-172.16-128.427-13.653-228.48-122.453-228.48-254.507 0-141.44 114.56-256 256-256h554.667c117.76 0 213.333 95.573 213.333 213.333 0 112.64-87.467 203.947-198.187 211.84zM810.667 192h-554.667c-94.080 0-170.667 76.587-170.667 170.667s76.587 170.667 170.667 170.667 170.667-76.587 170.667-170.667h85.333c0 117.76-79.573 216.533-187.733 246.4 42.88 57.387 110.933 94.933 187.733 94.933 129.493 0 234.667-105.173 234.667-234.667v-21.333h64c70.613 0 128-57.387 128-128s-57.387-128-128-128z" />
<glyph unicode="&#xe6c9;" d="M853.333 789.333h-170.667l-170.667 170.667-170.667-170.667h-170.667c-47.147 0-85.333-38.187-85.333-85.333v-597.333c0-47.147 38.187-85.333 85.333-85.333h682.667c47.147 0 85.333 38.187 85.333 85.333v597.333c0 47.147-38.187 85.333-85.333 85.333zM853.333 106.667h-682.667v597.333h192.64l150.187 149.333 148.48-149.333h191.36v-597.333zM768 618.667h-512v-426.667h512z" />
<glyph unicode="&#xe6ca;" d="M597.333 704l-160-213.333 121.6-162.133-68.267-51.2c-72.107 96-192 256-192 256l-256-341.333h938.667l-384 512z" />
<glyph unicode="&#xe6cb;" d="M128 746.667h-85.333v-682.667c0-47.147 38.187-85.333 85.333-85.333h682.667v85.333h-682.667v682.667zM896 917.333h-597.333c-47.147 0-85.333-38.187-85.333-85.333v-597.333c0-47.147 38.187-85.333 85.333-85.333h597.333c47.147 0 85.333 38.187 85.333 85.333v597.333c0 47.147-38.187 85.333-85.333 85.333zM896 234.667h-597.333v597.333h597.333v-597.333z" />
</font>
</defs>
</svg>
